The text below is selected, press Ctrl+C to copy to your clipboard. (⌘+C on Mac) No line numbers will be copied.
The House (2022) 1080p

14th January 2022 11:39:10 AM | Views: 16
  1. Format                                   : Matroska
  2. Format version                           : Version 4
  3. File size                                : 4.13 GiB
  4. Duration                                 : 1 h 37 min
  5. Overall bit rate mode                    : Variable
  6. Overall bit rate                         : 6 071 kb/s
  7. Movie name                               : The House (2022) 1080p WEB-DL x264 Dual Audio [Hindi DDP5.1 + English DDP5.1 Atmos] ESub 4.12GB [www.MoviezAddictionn.art]
  8. Encoded date                             : UTC 2022-01-14 08:52:47
  9. Writing application                      : mkvmerge v47.0.0 ('Black Flag') 64-bit
  10. Writing library                          : libebml v1.3.10 + libmatroska v1.5.2
  11.  
  12. Video
  13. ID                                       : 1
  14. Format                                   : AVC
  15. Format/Info                              : Advanced Video Codec
  16. Format profile                           : [email protected]
  17. Format settings                          : CABAC / 4 Ref Frames
  18. Format settings, CABAC                   : Yes
  19. Format settings, Reference frames        : 4 frames
  20. Codec ID                                 : V_MPEG4/ISO/AVC
  21. Duration                                 : 1 h 37 min
  22. Bit rate mode                            : Variable
  23. Bit rate                                 : 4 662 kb/s
  24. Maximum bit rate                         : 20.0 Mb/s
  25. Width                                    : 1 920 pixels
  26. Height                                   : 1 080 pixels
  27. Display aspect ratio                     : 16:9
  28. Frame rate mode                          : Constant
  29. Frame rate                               : 24.000 FPS
  30. Color space                              : YUV
  31. Chroma subsampling                       : 4:2:0
  32. Bit depth                                : 8 bits
  33. Scan type                                : Progressive
  34. Bits/(Pixel*Frame)                       : 0.094
  35. Stream size                              : 3.17 GiB (77%)
  36. Title                                    : [www.MoviezAddictionn.art]
  37. Default                                  : Yes
  38. Forced                                   : No
  39.  
  40. Audio #1
  41. ID                                       : 2
  42. Format                                   : E-AC-3
  43. Format/Info                              : Enhanced AC-3
  44. Commercial name                          : Dolby Digital Plus
  45. Codec ID                                 : A_EAC3
  46. Duration                                 : 1 h 37 min
  47. Bit rate mode                            : Constant
  48. Bit rate                                 : 640 kb/s
  49. Channel(s)                               : 6 channels
  50. Channel layout                           : L R C LFE Ls Rs
  51. Sampling rate                            : 48.0 kHz
  52. Frame rate                               : 31.250 FPS (1536 SPF)
  53. Compression mode                         : Lossy
  54. Stream size                              : 445 MiB (11%)
  55. Title                                    : [www.MoviezAddictionn.art] - Hindi
  56. Language                                 : Hindi
  57. Service kind                             : Complete Main
  58. Default                                  : Yes
  59. Forced                                   : No
  60.  
  61. Audio #2
  62. ID                                       : 3
  63. Format                                   : E-AC-3 JOC
  64. Format/Info                              : Enhanced AC-3 with Joint Object Coding
  65. Commercial name                          : Dolby Digital Plus with Dolby Atmos
  66. Codec ID                                 : A_EAC3
  67. Duration                                 : 1 h 37 min
  68. Bit rate mode                            : Constant
  69. Bit rate                                 : 768 kb/s
  70. Channel(s)                               : 6 channels
  71. Channel layout                           : L R C LFE Ls Rs
  72. Sampling rate                            : 48.0 kHz
  73. Frame rate                               : 31.250 FPS (1536 SPF)
  74. Compression mode                         : Lossy
  75. Stream size                              : 534 MiB (13%)
  76. Title                                    : [www.MoviezAddictionn.art] - English
  77. Language                                 : English
  78. Service kind                             : Complete Main
  79. Default                                  : No
  80. Forced                                   : No
  81. Complexity index                         : 16
  82. Number of dynamic objects                : 15
  83. Bed channel count                        : 1 channel
  84. Bed channel configuration                : LFE
  85.  
  86. Text
  87. ID                                       : 4
  88. Format                                   : UTF-8
  89. Codec ID                                 : S_TEXT/UTF8
  90. Codec ID/Info                            : UTF-8 Plain Text
  91. Duration                                 : 1 h 35 min
  92. Bit rate                                 : 75 b/s
  93. Count of elements                        : 1476
  94. Stream size                              : 52.8 KiB (0%)
  95. Title                                    : [www.MoviezAddictionn.art] - English [SRT]
  96. Language                                 : English
  97. Default                                  : Yes
  98. Forced                                   : No