The text below is selected, press Ctrl+C to copy to your clipboard. (⌘+C on Mac) No line numbers will be copied.
Back to the Titanic (2020)...

15th September 2020 11:50:29 AM | Views: 17
  1. Format                                   : Matroska
  2. Format version                           : Version 4
  3. File size                                : 130 MiB
  4. Duration                                 : 44 min 3 s
  5. Overall bit rate                         : 414 kb/s
  6. Movie name                               : Back to the Titanic (2020) 480p WEB-DL x264 Dual Audio [Hindi DD2.0 + English DD2.0] ESub 130MB [www.MoviezAddiction.space]
  7. Encoded date                             : UTC 2020-09-13 17:07:01
  8. Writing application                      : mkvmerge v48.0.0 ('Fortress Around Your Heart') 64-bit
  9. Writing library                          : libebml v1.4.0 + libmatroska v1.6.0
  10.  
  11. Video
  12. ID                                       : 1
  13. Format                                   : AVC
  14. Format/Info                              : Advanced Video Codec
  15. Format profile                           : [email protected]
  16. Format settings                          : CABAC / 4 Ref Frames
  17. Format settings, CABAC                   : Yes
  18. Format settings, Reference frames        : 4 frames
  19. Codec ID                                 : V_MPEG4/ISO/AVC
  20. Duration                                 : 44 min 3 s
  21. Bit rate                                 : 350 kb/s
  22. Width                                    : 720 pixels
  23. Height                                   : 408 pixels
  24. Display aspect ratio                     : 16:9
  25. Frame rate mode                          : Constant
  26. Frame rate                               : 25.000 FPS
  27. Color space                              : YUV
  28. Chroma subsampling                       : 4:2:0
  29. Bit depth                                : 8 bits
  30. Scan type                                : Progressive
  31. Bits/(Pixel*Frame)                       : 0.048
  32. Stream size                              : 110 MiB (85%)
  33. Title                                    : [www.MoviezAddiction.space]
  34. Writing library                          : x264 core 160 r3009 4c9b076
  35. Encoding settings                        : cabac=1 / ref=3 / deblock=1:0:0 / analyse=0x1:0x111 / me=hex / subme=7 / psy=1 / psy_rd=1.00:0.00 / mixed_ref=1 / me_range=16 / chroma_me=1 / trellis=1 / 8x8dct=0 / cqm=0 / deadzone=21,11 / fast_pskip=1 / chroma_qp_offset=-2 / threads=13 / lookahead_threads=2 / sliced_threads=0 / nr=0 / decimate=1 / interlaced=0 / bluray_compat=0 / constrained_intra=0 / bframes=3 / b_pyramid=2 / b_adapt=1 / b_bias=0 / direct=1 / weightb=1 / open_gop=0 / weightp=2 / keyint=250 / keyint_min=25 / scenecut=40 / intra_refresh=0 / rc_lookahead=40 / rc=2pass / mbtree=1 / bitrate=350 / ratetol=1.0 / qcomp=0.60 / qpmin=0 / qpmax=69 / qpstep=4 / cplxblur=20.0 / qblur=0.5 / ip_ratio=1.40 / aq=1:1.00
  36. Default                                  : Yes
  37. Forced                                   : No
  38. Color range                              : Limited
  39. Transfer characteristics                 : BT.709
  40.  
  41. Audio #1
  42. ID                                       : 2
  43. Format                                   : AAC LC SBR
  44. Format/Info                              : Advanced Audio Codec Low Complexity with Spectral Band Replication
  45. Commercial name                          : HE-AAC
  46. Format settings                          : Explicit
  47. Codec ID                                 : A_AAC-2
  48. Duration                                 : 44 min 3 s
  49. Bit rate                                 : 30.7 kb/s
  50. Channel(s)                               : 2 channels
  51. Channel layout                           : L R
  52. Sampling rate                            : 48.0 kHz
  53. Frame rate                               : 23.438 FPS (2048 SPF)
  54. Compression mode                         : Lossy
  55. Stream size                              : 9.67 MiB (7%)
  56. Title                                    : [www.MoviezAddiction.space] - English
  57. Language                                 : English
  58. Default                                  : No
  59. Forced                                   : No
  60.  
  61. Audio #2
  62. ID                                       : 3
  63. Format                                   : AAC LC SBR
  64. Format/Info                              : Advanced Audio Codec Low Complexity with Spectral Band Replication
  65. Commercial name                          : HE-AAC
  66. Format settings                          : Explicit
  67. Codec ID                                 : A_AAC-2
  68. Duration                                 : 44 min 3 s
  69. Bit rate                                 : 30.7 kb/s
  70. Channel(s)                               : 2 channels
  71. Channel layout                           : L R
  72. Sampling rate                            : 48.0 kHz
  73. Frame rate                               : 23.438 FPS (2048 SPF)
  74. Compression mode                         : Lossy
  75. Stream size                              : 9.67 MiB (7%)
  76. Title                                    : [www.MoviezAddiction.space] - Hindi
  77. Language                                 : Hindi
  78. Default                                  : Yes
  79. Forced                                   : Yes
  80.  
  81. Text
  82. ID                                       : 4
  83. Format                                   : UTF-8
  84. Codec ID                                 : S_TEXT/UTF8
  85. Codec ID/Info                            : UTF-8 Plain Text
  86. Duration                                 : 43 min 46 s
  87. Bit rate                                 : 85 b/s
  88. Count of elements                        : 741
  89. Stream size                              : 27.4 KiB (0%)
  90. Title                                    : [www.MoviezAddiction.space] - English [SRT]
  91. Language                                 : English
  92. Default                                  : Yes
  93. Forced                                   : Yes