The text below is selected, press Ctrl+C to copy to your clipboard. (⌘+C on Mac) No line numbers will be copied.
Son of Sardaar (2012) 720p

10th January 2022 09:59:17 AM | Views: 67
  1. Format                                   : Matroska
  2. Format version                           : Version 4
  3. File size                                : 1.30 GiB
  4. Duration                                 : 2 h 20 min
  5. Overall bit rate                         : 1 317 kb/s
  6. Movie name                               : Son of Sardaar (2012) 720p BluRay x264 Hindi BD5.1 ESub 1.29GB [www.BollyMovies.info]
  7. Encoded date                             : UTC 2022-01-10 07:23:43
  8. Writing application                      : mkvmerge v47.0.0 ('Black Flag') 64-bit
  9. Writing library                          : libebml v1.3.10 + libmatroska v1.5.2
  10.  
  11. Video
  12. ID                                       : 1
  13. Format                                   : AVC
  14. Format/Info                              : Advanced Video Codec
  15. Format profile                           : [email protected]
  16. Format settings                          : CABAC / 4 Ref Frames
  17. Format settings, CABAC                   : Yes
  18. Format settings, Reference frames        : 4 frames
  19. Codec ID                                 : V_MPEG4/ISO/AVC
  20. Duration                                 : 2 h 20 min
  21. Bit rate                                 : 1 099 kb/s
  22. Width                                    : 1 280 pixels
  23. Height                                   : 554 pixels
  24. Display aspect ratio                     : 2.35:1
  25. Original display aspect ratio            : 2.35:1
  26. Frame rate mode                          : Variable
  27. Frame rate                               : 24.000 FPS
  28. Color space                              : YUV
  29. Chroma subsampling                       : 4:2:0
  30. Bit depth                                : 8 bits
  31. Scan type                                : Progressive
  32. Bits/(Pixel*Frame)                       : 0.065
  33. Stream size                              : 1.08 GiB (83%)
  34. Title                                    : [www.BollyMovies.info]
  35. Default                                  : Yes
  36. Forced                                   : No
  37.  
  38. Audio
  39. ID                                       : 2
  40. Format                                   : AAC LC SBR
  41. Format/Info                              : Advanced Audio Codec Low Complexity with Spectral Band Replication
  42. Commercial name                          : HE-AAC
  43. Format settings                          : Explicit
  44. Codec ID                                 : A_AAC-2
  45. Duration                                 : 2 h 20 min
  46. Bit rate                                 : 192 kb/s
  47. Channel(s)                               : 6 channels
  48. Channel layout                           : C L R Ls Rs LFE
  49. Sampling rate                            : 48.0 kHz
  50. Frame rate                               : 23.438 FPS (2048 SPF)
  51. Compression mode                         : Lossy
  52. Stream size                              : 192 MiB (14%)
  53. Title                                    : [www.MoviezAddiction.art] - Hindi
  54. Language                                 : Hindi
  55. Default                                  : Yes
  56. Forced                                   : No
  57.  
  58. Text
  59. ID                                       : 3
  60. Format                                   : PGS
  61. Codec ID                                 : S_HDMV/PGS
  62. Codec ID/Info                            : Picture based subtitle format used on BDs/HD-DVDs
  63. Duration                                 : 2 h 13 min
  64. Bit rate                                 : 26.5 kb/s
  65. Count of elements                        : 3738
  66. Stream size                              : 25.4 MiB (2%)
  67. Title                                    : [www.BollyMovies.info] - English [PGS]
  68. Language                                 : English
  69. Default                                  : Yes
  70. Forced                                   : No
  71.  
  72. Menu
  73. 00:00:00.000                             : Chapter 01
  74. 00:02:14.500                             : Chapter 02
  75. 00:05:26.625                             : Chapter 03
  76. 00:09:59.000                             : Chapter 04
  77. 00:11:18.292                             : Chapter 05
  78. 00:12:00.417                             : Chapter 06
  79. 00:14:59.542                             : Chapter 07
  80. 00:18:44.667                             : Chapter 08
  81. 00:24:07.792                             : Chapter 09
  82. 00:33:26.750                             : Chapter 10
  83. 00:35:58.125                             : Chapter 11
  84. 00:41:40.125                             : Chapter 12
  85. 00:47:54.458                             : Chapter 13
  86. 00:54:29.625                             : Chapter 14
  87. 01:01:00.000                             : Chapter 15
  88. 01:08:58.167                             : Chapter 16
  89. 01:12:48.542                             : Chapter 17
  90. 01:17:01.958                             : Chapter 18
  91. 01:20:50.458                             : Chapter 19
  92. 01:24:14.833                             : Chapter 20
  93. 01:34:19.083                             : Chapter 21
  94. 01:36:10.250                             : Chapter 22
  95. 01:39:19.792                             : Chapter 23
  96. 01:41:21.417                             : Chapter 24
  97. 01:45:25.542                             : Chapter 25
  98. 01:51:41.458                             : Chapter 26
  99. 01:56:43.917                             : Chapter 27
  100. 02:04:05.375                             : Chapter 28
  101. 02:12:07.458                             : Chapter 29
  102. 02:16:08.833                             : Chapter 30