The text below is selected, press Ctrl+C to copy to your clipboard. (⌘+C on Mac) No line numbers will be copied.
Homefront (2013) 480p

14th September 2020 08:58:19 AM | Views: 10
  1. Format                                   : Matroska
  2. Format version                           : Version 4
  3. File size                                : 389 MiB
  4. Duration                                 : 1 h 40 min
  5. Overall bit rate                         : 541 kb/s
  6. Movie name                               : Homefront (2013) 480p Bluray x264 Dual Audio [ Hindi DD2.0 + English DD2.0 ] ESub [www.MoviezAddiction.space]
  7. Encoded date                             : UTC 2020-09-14 06:31:04
  8. Writing application                      : mkvmerge v48.0.0 ('Fortress Around Your Heart') 64-bit
  9. Writing library                          : libebml v1.4.0 + libmatroska v1.6.0
  10. Encoded by                               : Pahe.in™ Team
  11.  
  12. Video
  13. ID                                       : 1
  14. Format                                   : AVC
  15. Format/Info                              : Advanced Video Codec
  16. Format profile                           : [email protected]
  17. Format settings                          : CABAC / 5 Ref Frames
  18. Format settings, CABAC                   : Yes
  19. Format settings, Reference frames        : 5 frames
  20. Codec ID                                 : V_MPEG4/ISO/AVC
  21. Duration                                 : 1 h 40 min
  22. Bit rate                                 : 429 kb/s
  23. Width                                    : 854 pixels
  24. Height                                   : 356 pixels
  25. Display aspect ratio                     : 2.40:1
  26. Frame rate mode                          : Constant
  27. Frame rate                               : 23.976 (24000/1001) FPS
  28. Color space                              : YUV
  29. Chroma subsampling                       : 4:2:0
  30. Bit depth                                : 8 bits
  31. Scan type                                : Progressive
  32. Bits/(Pixel*Frame)                       : 0.059
  33. Stream size                              : 308 MiB (79%)
  34. Title                                    : [www.MoviezAddiction.space]
  35. Writing library                          : x264 core 152 r2851 ba24899
  36. Encoding settings                        : cabac=1 / ref=5 / deblock=1:-1:-1 / analyse=0x3:0x113 / me=umh / subme=8 / psy=1 / psy_rd=1.00:0.15 / mixed_ref=1 / me_range=16 / chroma_me=1 / trellis=2 / 8x8dct=1 / cqm=0 / deadzone=21,11 / fast_pskip=1 / chroma_qp_offset=-3 / threads=11 / lookahead_threads=1 / sliced_threads=0 / nr=0 / decimate=1 / interlaced=0 / bluray_compat=0 / constrained_intra=0 / bframes=3 / b_pyramid=2 / b_adapt=1 / b_bias=0 / direct=3 / weightb=1 / open_gop=0 / weightp=2 / keyint=250 / keyint_min=23 / scenecut=40 / intra_refresh=0 / rc_lookahead=50 / rc=2pass / mbtree=1 / bitrate=429 / ratetol=1.0 / qcomp=0.60 / qpmin=0 / qpmax=69 / qpstep=4 / cplxblur=20.0 / qblur=0.5 / vbv_maxrate=7500 / vbv_bufsize=9000 / nal_hrd=none / filler=0 / ip_ratio=1.40 / aq=3:0.80
  37. Default                                  : Yes
  38. Forced                                   : No
  39. Color range                              : Limited
  40. Color primaries                          : BT.709
  41. Matrix coefficients                      : BT.709
  42.  
  43. Audio #1
  44. ID                                       : 2
  45. Format                                   : AAC LC SBR
  46. Format/Info                              : Advanced Audio Codec Low Complexity with Spectral Band Replication
  47. Commercial name                          : HE-AAC
  48. Format settings                          : Explicit
  49. Codec ID                                 : A_AAC-2
  50. Duration                                 : 1 h 40 min
  51. Bit rate                                 : 56.5 kb/s
  52. Channel(s)                               : 2 channels
  53. Channel layout                           : L R
  54. Sampling rate                            : 48.0 kHz
  55. Frame rate                               : 23.438 FPS (2048 SPF)
  56. Compression mode                         : Lossy
  57. Delay relative to video                  : 31 ms
  58. Stream size                              : 40.6 MiB (10%)
  59. Title                                    : [www.MoviezAddiction.space]
  60. Language                                 : English
  61. Default                                  : No
  62. Forced                                   : No
  63.  
  64. Audio #2
  65. ID                                       : 4
  66. Format                                   : AAC LC
  67. Format/Info                              : Advanced Audio Codec Low Complexity
  68. Codec ID                                 : A_AAC-2
  69. Duration                                 : 1 h 40 min
  70. Bit rate                                 : 53.4 kb/s
  71. Channel(s)                               : 2 channels
  72. Channel layout                           : L R
  73. Sampling rate                            : 48.0 kHz
  74. Frame rate                               : 46.875 FPS (1024 SPF)
  75. Compression mode                         : Lossy
  76. Delay relative to video                  : 2 s 200 ms
  77. Stream size                              : 38.3 MiB (10%)
  78. Title                                    : [www.MoviezAddiction.space]
  79. Language                                 : Hindi
  80. Default                                  : Yes
  81. Forced                                   : Yes
  82.  
  83. Text
  84. ID                                       : 3
  85. Format                                   : UTF-8
  86. Codec ID                                 : S_TEXT/UTF8
  87. Codec ID/Info                            : UTF-8 Plain Text
  88. Duration                                 : 1 h 33 min
  89. Bit rate                                 : 50 b/s
  90. Count of elements                        : 1175
  91. Stream size                              : 34.5 KiB (0%)
  92. Title                                    : [www.MoviezAddiction.space]
  93. Language                                 : English
  94. Default                                  : Yes
  95. Forced                                   : Yes
  96.  
  97. Menu
  98. 00:00:00.000                             : en:00:00:00.000
  99. 00:04:55.462                             : en:00:04:55.462
  100. 00:09:14.095                             : en:00:09:14.095
  101. 00:14:55.853                             : en:00:14:55.853
  102. 00:21:42.426                             : en:00:21:42.426
  103. 00:25:03.001                             : en:00:25:03.001
  104. 00:31:23.215                             : en:00:31:23.215
  105. 00:34:04.000                             : en:00:34:04.000
  106. 00:39:01.089                             : en:00:39:01.089
  107. 00:45:47.995                             : en:00:45:47.995
  108. 00:49:29.258                             : en:00:49:29.258
  109. 00:55:16.480                             : en:00:55:16.480
  110. 01:01:55.420                             : en:01:01:55.420
  111. 01:08:56.174                             : en:01:08:56.174
  112. 01:12:27.635                             : en:01:12:27.635
  113. 01:16:00.973                             : en:01:16:00.973
  114. 01:19:15.250                             : en:01:19:15.250
  115. 01:24:02.621                             : en:01:24:02.621
  116. 01:29:39.124                             : en:01:29:39.124
  117. 01:35:16.961                             : en:01:35:16.961