The text below is selected, press Ctrl+C to copy to your clipboard. (⌘+C on Mac) No line numbers will be copied.
MoviezAddiction.Casa | Indiana Jones and...

10th June 2021 08:20:33 AM | Views: 21
  1. General
  2. Unique ID                                : 86795444428842050052717620216597686146 (0x414C31CDC775D719B26CC208D381A782)
  3. Complete name                            : F:\MoviezAddiction.Casa | Indiana Jones and the Temple of Doom (1984) 1080p UHD BluRay x264 EAC3 ESub Dual Audio [Hindi DD+ 5.1CH + English] 3.90GB
  4. Format                                   : Matroska
  5. Format version                           : Version 4
  6. File size                                : 3.89 GiB
  7. Duration                                 : 1 h 58 min
  8. Overall bit rate                         : 4 696 kb/s
  9. Movie name                               : MoviezAddiction.Casa | Indiana Jones and the Temple of Doom (1984) 1080p UHD BluRay x264 EAC3 ESub Dual Audio [Hindi DD+ 5.1CH + English] 3.90GB
  10. Encoded date                             : UTC 2021-06-10 04:40:04
  11. Writing application                      : mkvmerge v47.0.0 ('Black Flag') 64-bit
  12. Writing library                          : libebml v1.3.10 + libmatroska v1.5.2
  13.  
  14. Video
  15. ID                                       : 3
  16. Format                                   : AVC
  17. Format/Info                              : Advanced Video Codec
  18. Format profile                           : [email protected]
  19. Format settings                          : CABAC / 5 Ref Frames
  20. Format settings, CABAC                   : Yes
  21. Format settings, RefFrames               : 5 frames
  22. Codec ID                                 : V_MPEG4/ISO/AVC
  23. Duration                                 : 1 h 58 min
  24. Bit rate                                 : 3 602 kb/s
  25. Width                                    : 1 920 pixels
  26. Height                                   : 816 pixels
  27. Display aspect ratio                     : 2.35:1
  28. Frame rate mode                          : Constant
  29. Frame rate                               : 23.976 (24000/1001) FPS
  30. Color space                              : YUV
  31. Chroma subsampling                       : 4:2:0
  32. Bit depth                                : 8 bits
  33. Scan type                                : Progressive
  34. Bits/(Pixel*Frame)                       : 0.096
  35. Stream size                              : 2.98 GiB (77%)
  36. Title                                    : MoviezAddiction.Casa
  37. Writing library                          : x264 core 155 r2901 7d0ff22
  38. Encoding settings                        : cabac=1 / ref=5 / deblock=1:-3:-3 / analyse=0x3:0x133 / me=umh / subme=10 / psy=1 / psy_rd=1.00:0.15 / mixed_ref=1 / me_range=48 / chroma_me=1 / trellis=2 / 8x8dct=1 / cqm=0 / deadzone=21,11 / fast_pskip=0 / chroma_qp_offset=-3 / threads=25 / lookahead_threads=4 / sliced_threads=0 / nr=0 / decimate=0 / interlaced=0 / bluray_compat=0 / constrained_intra=0 / bframes=8 / b_pyramid=2 / b_adapt=2 / b_bias=0 / direct=3 / weightb=1 / open_gop=0 / weightp=2 / keyint=250 / keyint_min=23 / scenecut=40 / intra_refresh=0 / rc_lookahead=60 / rc=crf / mbtree=0 / crf=25.6 / qcomp=0.60 / qpmin=0 / qpmax=69 / qpstep=4 / vbv_maxrate=33500 / vbv_bufsize=30000 / crf_max=0.0 / nal_hrd=none / filler=0 / ip_ratio=1.30 / pb_ratio=1.20 / aq=3:0.80
  39. Language                                 : English
  40. Default                                  : Yes
  41. Forced                                   : Yes
  42.  
  43. Audio #1
  44. ID                                       : 1
  45. Format                                   : E-AC-3
  46. Format/Info                              : Enhanced AC-3
  47. Commercial name                          : Dolby Digital Plus
  48. Codec ID                                 : A_EAC3
  49. Duration                                 : 1 h 58 min
  50. Bit rate mode                            : Constant
  51. Bit rate                                 : 640 kb/s
  52. Channel(s)                               : 6 channels
  53. Channel layout                           : L R C LFE Ls Rs
  54. Sampling rate                            : 48.0 kHz
  55. Frame rate                               : 31.250 FPS (1536 SPF)
  56. Compression mode                         : Lossy
  57. Delay relative to video                  : 17 ms
  58. Stream size                              : 543 MiB (14%)
  59. Title                                    : MoviezAddiction.Casa
  60. Language                                 : Hindi
  61. Service kind                             : Complete Main
  62. Default                                  : Yes
  63. Forced                                   : Yes
  64.  
  65. Audio #2
  66. ID                                       : 4
  67. Format                                   : E-AC-3
  68. Format/Info                              : Enhanced AC-3
  69. Commercial name                          : Dolby Digital Plus
  70. Codec ID                                 : A_EAC3
  71. Duration                                 : 1 h 58 min
  72. Bit rate mode                            : Constant
  73. Bit rate                                 : 448 kb/s
  74. Channel(s)                               : 8 channels
  75. Channel layout                           : L R C LFE Ls Rs Lb Rb
  76. Sampling rate                            : 48.0 kHz
  77. Frame rate                               : 31.250 FPS (1536 SPF)
  78. Compression mode                         : Lossy
  79. Stream size                              : 380 MiB (10%)
  80. Title                                    : MoviezAddiction.Casa
  81. Language                                 : English
  82. Service kind                             : Complete Main
  83. Default                                  : No
  84. Forced                                   : Yes
  85.  
  86. Text #1
  87. ID                                       : 2
  88. Format                                   : UTF-8
  89. Codec ID                                 : S_TEXT/UTF8
  90. Codec ID/Info                            : UTF-8 Plain Text
  91. Duration                                 : 1 h 52 min
  92. Bit rate                                 : 27 b/s
  93. Count of elements                        : 866
  94. Stream size                              : 22.8 KiB (0%)
  95. Title                                    : MoviezAddiction.Casa
  96. Language                                 : English
  97. Default                                  : Yes
  98. Forced                                   : Yes
  99.  
  100. Text #2
  101. ID                                       : 5
  102. Format                                   : PGS
  103. Muxing mode                              : zlib
  104. Codec ID                                 : S_HDMV/PGS
  105. Codec ID/Info                            : Picture based subtitle format used on BDs/HD-DVDs
  106. Duration                                 : 1 h 52 min
  107. Bit rate                                 : 17.7 kb/s
  108. Count of elements                        : 1734
  109. Stream size                              : 14.2 MiB (0%)
  110. Title                                    : MoviezAddiction.Casa
  111. Language                                 : English
  112. Default                                  : No
  113. Forced                                   : Yes
  114.  
  115. Text #3
  116. ID                                       : 6
  117. Format                                   : PGS
  118. Muxing mode                              : zlib
  119. Codec ID                                 : S_HDMV/PGS
  120. Codec ID/Info                            : Picture based subtitle format used on BDs/HD-DVDs
  121. Duration                                 : 1 h 52 min
  122. Bit rate                                 : 22.3 kb/s
  123. Count of elements                        : 2234
  124. Stream size                              : 17.9 MiB (0%)
  125. Title                                    : MoviezAddiction.Casa
  126. Language                                 : English
  127. Default                                  : No
  128. Forced                                   : Yes