The text below is selected, press Ctrl+C to copy to your clipboard. (⌘+C on Mac) No line numbers will be copied.
The Pianist (2002) 720p

16th September 2020 08:17:46 AM | Views: 15
  1. Format                                   : Matroska
  2. Format version                           : Version 4
  3. File size                                : 1.53 GiB
  4. Duration                                 : 2 h 28 min
  5. Overall bit rate                         : 1 470 kb/s
  6. Movie name                               : The Pianist (2002) 720p Bluray x264 Dual Audio [ Hindi DDP2.0 + English DD5.1 ] ESub [www.MoviezAddiction.space]
  7. Encoded date                             : UTC 2020-09-16 05:50:07
  8. Writing application                      : mkvmerge v48.0.0 ('Fortress Around Your Heart') 64-bit
  9. Writing library                          : libebml v1.4.0 + libmatroska v1.6.0
  10.  
  11. Video
  12. ID                                       : 1
  13. Format                                   : AVC
  14. Format/Info                              : Advanced Video Codec
  15. Format profile                           : [email protected]
  16. Format settings                          : CABAC / 4 Ref Frames
  17. Format settings, CABAC                   : Yes
  18. Format settings, Reference frames        : 4 frames
  19. Codec ID                                 : V_MPEG4/ISO/AVC
  20. Duration                                 : 2 h 28 min
  21. Bit rate                                 : 1 151 kb/s
  22. Width                                    : 1 280 pixels
  23. Height                                   : 688 pixels
  24. Display aspect ratio                     : 1.85:1
  25. Frame rate mode                          : Constant
  26. Frame rate                               : 23.976 (24000/1001) FPS
  27. Color space                              : YUV
  28. Chroma subsampling                       : 4:2:0
  29. Bit depth                                : 8 bits
  30. Scan type                                : Progressive
  31. Bits/(Pixel*Frame)                       : 0.054
  32. Stream size                              : 1.19 GiB (78%)
  33. Title                                    : [www.MoviezAddiction.space]
  34. Default                                  : Yes
  35. Forced                                   : No
  36.  
  37. Audio #1
  38. ID                                       : 2
  39. Format                                   : AAC LC
  40. Format/Info                              : Advanced Audio Codec Low Complexity
  41. Codec ID                                 : A_AAC-2
  42. Duration                                 : 2 h 28 min
  43. Bit rate                                 : 192 kb/s
  44. Channel(s)                               : 6 channels
  45. Channel layout                           : C L R Ls Rs LFE
  46. Sampling rate                            : 48.0 kHz
  47. Frame rate                               : 46.875 FPS (1024 SPF)
  48. Compression mode                         : Lossy
  49. Delay relative to video                  : 1 ms
  50. Stream size                              : 201 MiB (13%)
  51. Title                                    : [www.MoviezAddiction.space]
  52. Language                                 : English
  53. Default                                  : No
  54. Forced                                   : No
  55.  
  56. Audio #2
  57. ID                                       : 3
  58. Format                                   : E-AC-3
  59. Format/Info                              : Enhanced AC-3
  60. Commercial name                          : Dolby Digital Plus
  61. Codec ID                                 : A_EAC3
  62. Duration                                 : 2 h 28 min
  63. Bit rate mode                            : Constant
  64. Bit rate                                 : 128 kb/s
  65. Channel(s)                               : 2 channels
  66. Channel layout                           : L R
  67. Sampling rate                            : 48.0 kHz
  68. Frame rate                               : 31.250 FPS (1536 SPF)
  69. Compression mode                         : Lossy
  70. Delay relative to video                  : 25 ms
  71. Stream size                              : 136 MiB (9%)
  72. Title                                    : [www.MoviezAddiction.space]
  73. Language                                 : Hindi
  74. Service kind                             : Complete Main
  75. Default                                  : Yes
  76. Forced                                   : Yes
  77.  
  78. Text
  79. ID                                       : 4
  80. Format                                   : UTF-8
  81. Codec ID                                 : S_TEXT/UTF8
  82. Codec ID/Info                            : UTF-8 Plain Text
  83. Duration                                 : 2 h 19 min
  84. Bit rate                                 : 31 b/s
  85. Count of elements                        : 894
  86. Stream size                              : 32.3 KiB (0%)
  87. Title                                    : [www.MoviezAddiction.space]
  88. Language                                 : English
  89. Default                                  : Yes
  90. Forced                                   : Yes
  91.  
  92. Menu
  93. 00:00:00.000                             : en:00:00:00.000
  94. 00:07:00.393                             : en:00:07:24.944
  95. 00:19:57.628                             : en:00:20:22.179
  96. 00:36:10.433                             : en:00:36:34.984
  97. 00:46:47.278                             : en:00:47:11.829
  98. 01:01:25.489                             : en:01:01:50.040
  99. 01:25:54.164                             : en:01:26:18.715
  100. 01:40:20.613                             : en:01:40:45.164
  101. 01:53:40.913                             : en:01:54:05.464
  102. 02:02:16.594                             : en:02:02:41.145
  103. 02:14:50.639                             : en:02:15:15.190
  104. 02:20:55.379                             : en:02:21:19.930