The text below is selected, press Ctrl+C to copy to your clipboard. (⌘+C on Mac) No line numbers will be copied.
Adrift (2018) 1080p

15th January 2022 02:52:20 PM | Views: 70
  1. Format                                   : Matroska
  2. Format version                           : Version 4
  3. File size                                : 5.96 GiB
  4. Duration                                 : 1 h 36 min
  5. Overall bit rate mode                    : Variable
  6. Overall bit rate                         : 8 819 kb/s
  7. Movie name                               : Adrift (2018) 1080p BluRay x264 Dual Audio [Hindi DD2.0 + English DTS-HD MA 7.1] ESub 5.96GB [www.MoviezAddiction.art]
  8. Encoded date                             : UTC 2022-01-15 13:16:35
  9. Writing application                      : mkvmerge v47.0.0 ('Black Flag') 64-bit
  10. Writing library                          : libebml v1.3.10 + libmatroska v1.5.2
  11.  
  12. Video
  13. ID                                       : 1
  14. Format                                   : AVC
  15. Format/Info                              : Advanced Video Codec
  16. Format profile                           : [email protected]
  17. Format settings                          : CABAC / 5 Ref Frames
  18. Format settings, CABAC                   : Yes
  19. Format settings, Reference frames        : 5 frames
  20. Codec ID                                 : V_MPEG4/ISO/AVC
  21. Duration                                 : 1 h 36 min
  22. Bit rate                                 : 4 000 kb/s
  23. Width                                    : 1 920 pixels
  24. Height                                   : 804 pixels
  25. Display aspect ratio                     : 2.40:1
  26. Frame rate mode                          : Variable
  27. Frame rate                               : 23.976 (24000/1001) FPS
  28. Color space                              : YUV
  29. Chroma subsampling                       : 4:2:0
  30. Bit depth                                : 8 bits
  31. Scan type                                : Progressive
  32. Bits/(Pixel*Frame)                       : 0.108
  33. Stream size                              : 2.70 GiB (45%)
  34. Title                                    : [www.MoviezAddiction.art]
  35. Default                                  : Yes
  36. Forced                                   : No
  37.  
  38. Audio #1
  39. ID                                       : 2
  40. Format                                   : AC-3
  41. Format/Info                              : Audio Coding 3
  42. Commercial name                          : Dolby Digital
  43. Codec ID                                 : A_AC3
  44. Duration                                 : 1 h 36 min
  45. Bit rate mode                            : Constant
  46. Bit rate                                 : 224 kb/s
  47. Channel(s)                               : 2 channels
  48. Channel layout                           : L R
  49. Sampling rate                            : 48.0 kHz
  50. Frame rate                               : 31.250 FPS (1536 SPF)
  51. Compression mode                         : Lossy
  52. Stream size                              : 155 MiB (3%)
  53. Title                                    : [www.MoviezAddiction.art] - Hindi
  54. Language                                 : Hindi
  55. Service kind                             : Complete Main
  56. Default                                  : Yes
  57. Forced                                   : No
  58.  
  59. Audio #2
  60. ID                                       : 3
  61. Format                                   : DTS XLL
  62. Format/Info                              : Digital Theater Systems
  63. Commercial name                          : DTS-HD Master Audio
  64. Codec ID                                 : A_DTS
  65. Duration                                 : 1 h 36 min
  66. Bit rate mode                            : Variable
  67. Bit rate                                 : 4 565 kb/s
  68. Channel(s)                               : 8 channels
  69. Channel layout                           : C L R LFE Lb Rb Lss Rss
  70. Sampling rate                            : 48.0 kHz
  71. Frame rate                               : 93.750 FPS (512 SPF)
  72. Bit depth                                : 24 bits
  73. Compression mode                         : Lossless
  74. Stream size                              : 3.09 GiB (52%)
  75. Title                                    : [www.MoviezAddiction.art] - English
  76. Language                                 : English
  77. Default                                  : No
  78. Forced                                   : No
  79.  
  80. Text
  81. ID                                       : 4
  82. Format                                   : PGS
  83. Codec ID                                 : S_HDMV/PGS
  84. Codec ID/Info                            : Picture based subtitle format used on BDs/HD-DVDs
  85. Duration                                 : 1 h 28 min
  86. Bit rate                                 : 31.1 kb/s
  87. Count of elements                        : 1990
  88. Stream size                              : 19.6 MiB (0%)
  89. Title                                    : [www.MoviezAddiction.art] - English [SDH] [PGS]
  90. Language                                 : English
  91. Default                                  : Yes
  92. Forced                                   : No
  93.  
  94. Menu
  95. 00:00:00.000                             : en:Chapter 1
  96. 00:05:18.944                             : en:Chapter 2
  97. 00:08:04.401                             : en:Chapter 3
  98. 00:14:01.257                             : en:Chapter 4
  99. 00:19:38.010                             : en:Chapter 5
  100. 00:24:46.568                             : en:Chapter 6
  101. 00:29:42.572                             : en:Chapter 7
  102. 00:34:45.709                             : en:Chapter 8
  103. 00:37:20.947                             : en:Chapter 9
  104. 00:43:30.024                             : en:Chapter 10
  105. 00:49:43.564                             : en:Chapter 11
  106. 00:52:40.532                             : en:Chapter 12
  107. 00:58:12.447                             : en:Chapter 13
  108. 01:06:31.029                             : en:Chapter 14
  109. 01:11:19.650                             : en:Chapter 15
  110. 01:14:07.151                             : en:Chapter 16
  111. 01:18:06.974                             : en:Chapter 17
  112. 01:24:15.550                             : en:Chapter 18
  113. 01:27:22.446                             : en:Chapter 19
  114. 01:31:34.489                             : en:Chapter 20