The text below is selected, press Ctrl+C to copy to your clipboard. (⌘+C on Mac) No line numbers will be copied.
Ponyo (2008) 1080p BluRay x265...

22nd November 2022 02:20:25 PM | Views: 28
  1. Format                                   : Matroska
  2. Format version                           : Version 4
  3. File size                                : 2.75 GiB
  4. Duration                                 : 1 h 42 min
  5. Overall bit rate                         : 3 849 kb/s
  6. Movie name                               : Ponyo (2008) 1080p BluRay x265 10bit HEVC Dual Audio [Hindi DDP5.1 + Engish DTS 5.1] ESub 2.75GB [MoviezAddiction.life]
  7. Encoded date                             : UTC 2022-11-20 15:34:55
  8. Writing application                      : mkvmerge v72.0.0 ('Minuano (Six-eight)') 64-bit
  9. Writing library                          : libebml v1.4.4 + libmatroska v1.7.1
  10.  
  11. Video
  12. ID                                       : 1
  13. Format                                   : HEVC
  14. Format/Info                              : High Efficiency Video Coding
  15. Format profile                           : Main [email protected]@Main
  16. Codec ID                                 : V_MPEGH/ISO/HEVC
  17. Duration                                 : 1 h 42 min
  18. Bit rate                                 : 1 686 kb/s
  19. Width                                    : 1 920 pixels
  20. Height                                   : 1 040 pixels
  21. Display aspect ratio                     : 1.85:1
  22. Frame rate mode                          : Constant
  23. Frame rate                               : 23.976 (24000/1001) FPS
  24. Color space                              : YUV
  25. Chroma subsampling                       : 4:2:0
  26. Bit depth                                : 10 bits
  27. Bits/(Pixel*Frame)                       : 0.035
  28. Stream size                              : 1.20 GiB (44%)
  29. Default                                  : Yes
  30. Forced                                   : No
  31.  
  32. Audio #1
  33. ID                                       : 2
  34. Format                                   : E-AC-3
  35. Format/Info                              : Enhanced AC-3
  36. Commercial name                          : Dolby Digital Plus
  37. Codec ID                                 : A_EAC3
  38. Duration                                 : 1 h 41 min
  39. Bit rate mode                            : Constant
  40. Bit rate                                 : 640 kb/s
  41. Channel(s)                               : 6 channels
  42. Channel layout                           : L R C LFE Ls Rs
  43. Sampling rate                            : 48.0 kHz
  44. Frame rate                               : 31.250 FPS (1536 SPF)
  45. Compression mode                         : Lossy
  46. Delay relative to video                  : -3 s 967 ms
  47. Stream size                              : 466 MiB (17%)
  48. Title                                    : Hindi
  49. Language                                 : Hindi
  50. Service kind                             : Complete Main
  51. Default                                  : Yes
  52. Forced                                   : No
  53.  
  54. Audio #2
  55. ID                                       : 3
  56. Format                                   : DTS
  57. Format/Info                              : Digital Theater Systems
  58. Codec ID                                 : A_DTS
  59. Duration                                 : 1 h 42 min
  60. Bit rate mode                            : Constant
  61. Bit rate                                 : 1 509 kb/s
  62. Channel(s)                               : 6 channels
  63. Channel layout                           : C L R Ls Rs LFE
  64. Sampling rate                            : 48.0 kHz
  65. Frame rate                               : 93.750 FPS (512 SPF)
  66. Bit depth                                : 24 bits
  67. Compression mode                         : Lossy
  68. Stream size                              : 1.08 GiB (39%)
  69. Title                                    : English
  70. Language                                 : English
  71. Default                                  : No
  72. Forced                                   : No
  73.  
  74. Text
  75. ID                                       : 4
  76. Format                                   : PGS
  77. Codec ID                                 : S_HDMV/PGS
  78. Codec ID/Info                            : Picture based subtitle format used on BDs/HD-DVDs
  79. Duration                                 : 1 h 36 min
  80. Bit rate                                 : 21.2 kb/s
  81. Frame rate                               : 0.288 FPS
  82. Count of elements                        : 1665
  83. Stream size                              : 14.6 MiB (1%)
  84. Title                                    : English [PGS]
  85. Language                                 : English
  86. Default                                  : Yes
  87. Forced                                   : No
  88.  
  89. Menu
  90. 00:00:03.986                             : en:Life
  91. 00:04:38.928                             : en:The Beginning
  92. 00:08:09.638                             : en:Sosuke
  93. 00:12:33.902                             : en:I'll Call Her Ponyo
  94. 00:17:03.672                             : en:My Fault
  95. 00:21:06.414                             : en:Ponyo Loves Sosuke
  96. 00:25:10.158                             : en:Bugoff
  97. 00:30:05.453                             : en:Hands and Feet
  98. 00:33:35.955                             : en:The Magic Well
  99. 00:37:36.403                             : en:An Explosion of Life
  100. 00:42:12.971                             : en:Micro Typhoon
  101. 00:45:41.388                             : en:Running on a Fish
  102. 00:50:38.685                             : en:This is the Best
  103. 00:56:17.023                             : en:Ham!
  104. 00:59:13.699                             : en:Be Brave
  105. 01:02:04.870                             : en:The Goddess of Mercy
  106. 01:05:17.062                             : en:Let Them Sleep
  107. 01:08:57.783                             : en:Fantastic
  108. 01:13:03.528                             : en:I Used to be a Fish
  109. 01:19:27.912                             : en:I'd Miss You
  110. 01:24:24.208                             : en:Mom?
  111. 01:29:13.497                             : en:Come With Me
  112. 01:33:20.744                             : en:I Really Love Her
  113. 01:39:14.598                             : en:Credits