The text below is selected, press Ctrl+C to copy to your clipboard. (⌘+C on Mac) No line numbers will be copied.
Ponyo (2008) 720p BluRay x264...

22nd November 2022 02:22:15 PM | Views: 14
  1. Format                                   : Matroska
  2. Format version                           : Version 4
  3. File size                                : 1.07 GiB
  4. Duration                                 : 1 h 42 min
  5. Overall bit rate                         : 1 500 kb/s
  6. Movie name                               : Ponyo (2008) 720p BluRay x264 Dual Audio [Hindi DD5.1 + Engish BD5.1] ESub 1.07GB [MoviezAddiction.life]
  7. Encoded date                             : UTC 2022-11-20 15:23:41
  8. Writing application                      : mkvmerge v72.0.0 ('Minuano (Six-eight)') 64-bit
  9. Writing library                          : libebml v1.4.4 + libmatroska v1.7.1
  10.  
  11. Video
  12. ID                                       : 1
  13. Format                                   : AVC
  14. Format/Info                              : Advanced Video Codec
  15. Format profile                           : [email protected]
  16. Format settings                          : CABAC / 4 Ref Frames
  17. Format settings, CABAC                   : Yes
  18. Format settings, Reference frames        : 4 frames
  19. Codec ID                                 : V_MPEG4/ISO/AVC
  20. Duration                                 : 1 h 42 min
  21. Bit rate                                 : 1 099 kb/s
  22. Width                                    : 1 280 pixels
  23. Height                                   : 694 pixels
  24. Display aspect ratio                     : 1.85:1
  25. Frame rate mode                          : Variable
  26. Frame rate                               : 23.976 (24000/1001) FPS
  27. Color space                              : YUV
  28. Chroma subsampling                       : 4:2:0
  29. Bit depth                                : 8 bits
  30. Scan type                                : Progressive
  31. Bits/(Pixel*Frame)                       : 0.052
  32. Stream size                              : 804 MiB (73%)
  33. Default                                  : Yes
  34. Forced                                   : No
  35.  
  36. Audio #1
  37. ID                                       : 2
  38. Format                                   : AAC LC SBR
  39. Format/Info                              : Advanced Audio Codec Low Complexity with Spectral Band Replication
  40. Commercial name                          : HE-AAC
  41. Format settings                          : Explicit
  42. Codec ID                                 : A_AAC-2
  43. Duration                                 : 1 h 41 min
  44. Bit rate                                 : 192 kb/s
  45. Channel(s)                               : 6 channels
  46. Channel layout                           : C L R Ls Rs LFE
  47. Sampling rate                            : 48.0 kHz
  48. Frame rate                               : 23.438 FPS (2048 SPF)
  49. Compression mode                         : Lossy
  50. Delay relative to video                  : -3 s 976 ms
  51. Stream size                              : 139 MiB (13%)
  52. Title                                    : Hindi
  53. Language                                 : Hindi
  54. Default                                  : Yes
  55. Forced                                   : No
  56.  
  57. Audio #2
  58. ID                                       : 3
  59. Format                                   : AAC LC SBR
  60. Format/Info                              : Advanced Audio Codec Low Complexity with Spectral Band Replication
  61. Commercial name                          : HE-AAC
  62. Format settings                          : Explicit
  63. Codec ID                                 : A_AAC-2
  64. Duration                                 : 1 h 42 min
  65. Bit rate                                 : 192 kb/s
  66. Channel(s)                               : 6 channels
  67. Channel layout                           : C L R Ls Rs LFE
  68. Sampling rate                            : 48.0 kHz
  69. Frame rate                               : 23.438 FPS (2048 SPF)
  70. Compression mode                         : Lossy
  71. Stream size                              : 140 MiB (13%)
  72. Title                                    : English
  73. Language                                 : English
  74. Default                                  : No
  75. Forced                                   : No
  76.  
  77. Text
  78. ID                                       : 4
  79. Format                                   : PGS
  80. Codec ID                                 : S_HDMV/PGS
  81. Codec ID/Info                            : Picture based subtitle format used on BDs/HD-DVDs
  82. Duration                                 : 1 h 36 min
  83. Bit rate                                 : 21.2 kb/s
  84. Frame rate                               : 0.288 FPS
  85. Count of elements                        : 1665
  86. Stream size                              : 14.6 MiB (1%)
  87. Title                                    : English [PGS]
  88. Language                                 : English
  89. Default                                  : Yes
  90. Forced                                   : No
  91.  
  92. Menu
  93. 00:00:03.976                             : en:Life
  94. 00:04:38.918                             : en:The Beginning
  95. 00:08:09.628                             : en:Sosuke
  96. 00:12:33.892                             : en:I'll Call Her Ponyo
  97. 00:17:03.662                             : en:My Fault
  98. 00:21:06.404                             : en:Ponyo Loves Sosuke
  99. 00:25:10.148                             : en:Bugoff
  100. 00:30:05.443                             : en:Hands and Feet
  101. 00:33:35.945                             : en:The Magic Well
  102. 00:37:36.393                             : en:An Explosion of Life
  103. 00:42:12.961                             : en:Micro Typhoon
  104. 00:45:41.378                             : en:Running on a Fish
  105. 00:50:38.675                             : en:This is the Best
  106. 00:56:17.013                             : en:Ham!
  107. 00:59:13.689                             : en:Be Brave
  108. 01:02:04.860                             : en:The Goddess of Mercy
  109. 01:05:17.052                             : en:Let Them Sleep
  110. 01:08:57.773                             : en:Fantastic
  111. 01:13:03.518                             : en:I Used to be a Fish
  112. 01:19:27.902                             : en:I'd Miss You
  113. 01:24:24.198                             : en:Mom?
  114. 01:29:13.487                             : en:Come With Me
  115. 01:33:20.734                             : en:I Really Love Her
  116. 01:39:14.588                             : en:Credits