The text below is selected, press Ctrl+C to copy to your clipboard. (⌘+C on Mac) No line numbers will be copied.
The A-Team (2010) EXTENDED 720p...

23rd January 2023 03:30:46 AM | Views: 4
  1. Format                                   : Matroska
  2. Format version                           : Version 4
  3. File size                                : 1.43 GiB
  4. Duration                                 : 2 h 13 min
  5. Overall bit rate                         : 1 528 kb/s
  6. Movie name                               : The A-Team (2010) EXTENDED 720p BluRay x264 Dual Audio [Hindi + English BD5.1] ESub 1.42GB [MoviezAddiction]
  7. Encoded date                             : UTC 2023-01-23 01:30:01
  8. Writing application                      : mkvmerge v72.0.0 ('Minuano (Six-eight)') 64-bit
  9. Writing library                          : libebml v1.4.4 + libmatroska v1.7.1
  10.  
  11. Video
  12. ID                                       : 1
  13. Format                                   : AVC
  14. Format/Info                              : Advanced Video Codec
  15. Format profile                           : [email protected]
  16. Format settings                          : CABAC / 4 Ref Frames
  17. Format settings, CABAC                   : Yes
  18. Format settings, Reference frames        : 4 frames
  19. Codec ID                                 : V_MPEG4/ISO/AVC
  20. Duration                                 : 2 h 13 min
  21. Bit rate                                 : 1 099 kb/s
  22. Width                                    : 1 280 pixels
  23. Height                                   : 544 pixels
  24. Display aspect ratio                     : 2.35:1
  25. Frame rate mode                          : Variable
  26. Frame rate                               : 23.976 (24000/1001) FPS
  27. Color space                              : YUV
  28. Chroma subsampling                       : 4:2:0
  29. Bit depth                                : 8 bits
  30. Scan type                                : Progressive
  31. Bits/(Pixel*Frame)                       : 0.066
  32. Stream size                              : 1.02 GiB (72%)
  33. Default                                  : Yes
  34. Forced                                   : No
  35. Color range                              : Limited
  36. Color primaries                          : BT.709
  37. Transfer characteristics                 : BT.709
  38. Matrix coefficients                      : BT.709
  39.  
  40. Audio #1
  41. ID                                       : 2
  42. Format                                   : AAC LC SBR
  43. Format/Info                              : Advanced Audio Codec Low Complexity with Spectral Band Replication
  44. Commercial name                          : HE-AAC
  45. Format settings                          : Explicit
  46. Codec ID                                 : A_AAC-2
  47. Duration                                 : 2 h 13 min
  48. Bit rate                                 : 192 kb/s
  49. Channel(s)                               : 6 channels
  50. Channel layout                           : C L R Ls Rs LFE
  51. Sampling rate                            : 48.0 kHz
  52. Frame rate                               : 23.438 FPS (2048 SPF)
  53. Compression mode                         : Lossy
  54. Delay relative to video                  : -26 ms
  55. Stream size                              : 182 MiB (12%)
  56. Title                                    : Hindi
  57. Language                                 : Hindi
  58. Default                                  : Yes
  59. Forced                                   : No
  60.  
  61. Audio #2
  62. ID                                       : 3
  63. Format                                   : AAC LC SBR
  64. Format/Info                              : Advanced Audio Codec Low Complexity with Spectral Band Replication
  65. Commercial name                          : HE-AAC
  66. Format settings                          : Explicit
  67. Codec ID                                 : A_AAC-2
  68. Duration                                 : 2 h 13 min
  69. Bit rate                                 : 192 kb/s
  70. Channel(s)                               : 6 channels
  71. Channel layout                           : C L R Ls Rs LFE
  72. Sampling rate                            : 48.0 kHz
  73. Frame rate                               : 23.438 FPS (2048 SPF)
  74. Compression mode                         : Lossy
  75. Stream size                              : 182 MiB (12%)
  76. Title                                    : English
  77. Language                                 : English
  78. Default                                  : No
  79. Forced                                   : No
  80.  
  81. Text
  82. ID                                       : 4
  83. Format                                   : PGS
  84. Codec ID                                 : S_HDMV/PGS
  85. Codec ID/Info                            : Picture based subtitle format used on BDs/HD-DVDs
  86. Duration                                 : 2 h 12 min
  87. Bit rate                                 : 45.7 kb/s
  88. Frame rate                               : 0.496 FPS
  89. Count of elements                        : 3948
  90. Stream size                              : 43.3 MiB (3%)
  91. Title                                    : English [PGS]
  92. Language                                 : English
  93. Default                                  : Yes
  94. Forced                                   : No
  95.  
  96. Menu
  97. 00:00:00.026                             : 第 01 章
  98. 00:05:17.426                             : 第 02 章
  99. 00:13:31.295                             : 第 03 章
  100. 00:21:10.795                             : 第 04 章
  101. 00:26:32.367                             : 第 05 章
  102. 00:37:42.828                             : 第 06 章
  103. 00:45:23.580                             : 第 07 章
  104. 00:49:30.285                             : 第 08 章
  105. 00:56:53.895                             : 第 09 章
  106. 01:02:40.574                             : 第 10 章
  107. 01:09:43.080                             : 第 11 章
  108. 01:15:19.666                             : 第 12 章
  109. 01:23:06.382                             : 第 13 章
  110. 01:28:54.605                             : 第 14 章
  111. 01:35:56.860                             : 第 15 章
  112. 01:38:35.977                             : 第 16 章
  113. 01:43:12.545                             : 第 17 章
  114. 01:49:42.852                             : 第 18 章
  115. 01:57:19.600                             : 第 19 章
  116. 02:07:00.680                             : 第 20 章