The text below is selected, press Ctrl+C to copy to your clipboard. (⌘+C on Mac) No line numbers will be copied.
The Thing (2011) 1080p BluRay...

7th November 2022 07:55:55 AM | Views: 18
  1. Format                                   : Matroska
  2. Format version                           : Version 4
  3. File size                                : 24.8 GiB
  4. Duration                                 : 1 h 43 min
  5. Overall bit rate mode                    : Variable
  6. Overall bit rate                         : 34.4 Mb/s
  7. Movie name                               : The Thing (2011) 1080p BluRay REMUX VC-1 Dual Audio [Hindi DVD DD5.1 + English DTS-HD MA 5.1] ESub 24.7GB [MoviezAddiction.life]
  8. Encoded date                             : UTC 2022-11-06 14:09:26
  9. Writing application                      : mkvmerge v71.1.0 ('Fortitude') 64-bit
  10. Writing library                          : libebml v1.4.4 + libmatroska v1.7.1
  11.  
  12. Video
  13. ID                                       : 1
  14. Format                                   : VC-1
  15. Format profile                           : [email protected]
  16. Codec ID                                 : V_MS/VFW/FOURCC / WVC1
  17. Codec ID/Hint                            : Microsoft
  18. Duration                                 : 1 h 43 min
  19. Bit rate                                 : 30.4 Mb/s
  20. Width                                    : 1 920 pixels
  21. Height                                   : 1 080 pixels
  22. Display aspect ratio                     : 16:9
  23. Frame rate mode                          : Constant
  24. Frame rate                               : 23.976 (24000/1001) FPS
  25. Color space                              : YUV
  26. Chroma subsampling                       : 4:2:0
  27. Bit depth                                : 8 bits
  28. Scan type                                : Progressive
  29. Compression mode                         : Lossy
  30. Bits/(Pixel*Frame)                       : 0.611
  31. Stream size                              : 21.8 GiB (88%)
  32. Default                                  : Yes
  33. Forced                                   : No
  34.  
  35. Audio #1
  36. ID                                       : 2
  37. Format                                   : AC-3
  38. Format/Info                              : Audio Coding 3
  39. Commercial name                          : Dolby Digital
  40. Codec ID                                 : A_AC3
  41. Duration                                 : 1 h 43 min
  42. Bit rate mode                            : Constant
  43. Bit rate                                 : 448 kb/s
  44. Channel(s)                               : 6 channels
  45. Channel layout                           : L R C LFE Ls Rs
  46. Sampling rate                            : 48.0 kHz
  47. Frame rate                               : 31.250 FPS (1536 SPF)
  48. Compression mode                         : Lossy
  49. Delay relative to video                  : 128 ms
  50. Stream size                              : 330 MiB (1%)
  51. Title                                    : Hindi
  52. Language                                 : Hindi
  53. Service kind                             : Complete Main
  54. Default                                  : Yes
  55. Forced                                   : No
  56.  
  57. Audio #2
  58. ID                                       : 3
  59. Format                                   : DTS XLL
  60. Format/Info                              : Digital Theater Systems
  61. Commercial name                          : DTS-HD Master Audio
  62. Codec ID                                 : A_DTS
  63. Duration                                 : 1 h 43 min
  64. Bit rate mode                            : Variable
  65. Bit rate                                 : 3 600 kb/s
  66. Channel(s)                               : 6 channels
  67. Channel layout                           : C L R Ls Rs LFE
  68. Sampling rate                            : 48.0 kHz
  69. Frame rate                               : 93.750 FPS (512 SPF)
  70. Bit depth                                : 24 bits
  71. Compression mode                         : Lossless
  72. Stream size                              : 2.59 GiB (10%)
  73. Title                                    : English
  74. Language                                 : English
  75. Default                                  : No
  76. Forced                                   : No
  77.  
  78. Text
  79. ID                                       : 4
  80. Format                                   : PGS
  81. Codec ID                                 : S_HDMV/PGS
  82. Codec ID/Info                            : Picture based subtitle format used on BDs/HD-DVDs
  83. Duration                                 : 1 h 36 min
  84. Bit rate                                 : 19.9 kb/s
  85. Frame rate                               : 0.295 FPS
  86. Count of elements                        : 1702
  87. Stream size                              : 13.7 MiB (0%)
  88. Title                                    : English [PGS]
  89. Language                                 : English
  90. Default                                  : Yes
  91. Forced                                   : No
  92.  
  93. Menu
  94. 00:00:00.000                             : en:00:00:00.000
  95. 00:04:31.896                             : en:00:04:31.896
  96. 00:10:51.901                             : en:00:10:51.901
  97. 00:14:41.422                             : en:00:14:41.422
  98. 00:17:05.774                             : en:00:17:05.774
  99. 00:20:39.655                             : en:00:20:39.655
  100. 00:25:09.549                             : en:00:25:09.549
  101. 00:32:49.634                             : en:00:32:49.634
  102. 00:38:06.117                             : en:00:38:06.117
  103. 00:43:02.705                             : en:00:43:02.705
  104. 00:51:15.739                             : en:00:51:15.739
  105. 00:55:13.184                             : en:00:55:13.184
  106. 01:00:04.350                             : en:01:00:04.350
  107. 01:04:51.804                             : en:01:04:51.804
  108. 01:09:58.235                             : en:01:09:58.235
  109. 01:14:39.516                             : en:01:14:39.516
  110. 01:20:58.520                             : en:01:20:58.520
  111. 01:24:46.372                             : en:01:24:46.372
  112. 01:30:30.675                             : en:01:30:30.675
  113. 01:34:56.315                             : en:01:34:56.315