The text below is selected, press Ctrl+C to copy to your clipboard. (⌘+C on Mac) No line numbers will be copied.
Sicario (2015) 480p

14th September 2020 04:18:08 PM | Views: 22
  1. Format                                   : Matroska
  2. Format version                           : Version 4
  3. File size                                : 448 MiB
  4. Duration                                 : 2 h 1 min
  5. Overall bit rate                         : 516 kb/s
  6. Movie name                               : Sicario (2015) 480p Bluray x264 Dual Audio [ Hindi DD2.0 + English DD2.0 ] ESub [www.MoviezAddiction.space]
  7. Encoded date                             : UTC 2020-09-14 13:59:06
  8. Writing application                      : mkvmerge v48.0.0 ('Fortress Around Your Heart') 64-bit
  9. Writing library                          : libebml v1.4.0 + libmatroska v1.6.0
  10.  
  11. Video
  12. ID                                       : 1
  13. Format                                   : AVC
  14. Format/Info                              : Advanced Video Codec
  15. Format profile                           : [email protected]
  16. Format settings                          : CABAC / 5 Ref Frames
  17. Format settings, CABAC                   : Yes
  18. Format settings, Reference frames        : 5 frames
  19. Codec ID                                 : V_MPEG4/ISO/AVC
  20. Duration                                 : 2 h 1 min
  21. Bit rate                                 : 406 kb/s
  22. Width                                    : 856 pixels
  23. Height                                   : 360 pixels
  24. Display aspect ratio                     : 2.40:1
  25. Frame rate mode                          : Constant
  26. Frame rate                               : 23.976 (24000/1001) FPS
  27. Color space                              : YUV
  28. Chroma subsampling                       : 4:2:0
  29. Bit depth                                : 8 bits
  30. Scan type                                : Progressive
  31. Bits/(Pixel*Frame)                       : 0.055
  32. Stream size                              : 352 MiB (79%)
  33. Title                                    : [www.MoviezAddiction.space]
  34. Writing library                          : x264 core 148 r2694 3b70645
  35. Encoding settings                        : cabac=1 / ref=5 / deblock=1:-1:-1 / analyse=0x3:0x113 / me=umh / subme=8 / psy=1 / psy_rd=1.00:0.15 / mixed_ref=1 / me_range=24 / chroma_me=1 / trellis=1 / 8x8dct=1 / cqm=0 / deadzone=21,11 / fast_pskip=1 / chroma_qp_offset=-3 / threads=6 / lookahead_threads=1 / sliced_threads=0 / nr=0 / decimate=1 / interlaced=0 / bluray_compat=0 / constrained_intra=0 / bframes=3 / b_pyramid=2 / b_adapt=2 / b_bias=0 / direct=3 / weightb=1 / open_gop=0 / weightp=2 / keyint=250 / keyint_min=23 / scenecut=40 / intra_refresh=0 / rc_lookahead=50 / rc=2pass / mbtree=1 / bitrate=406 / ratetol=1.0 / qcomp=0.60 / qpmin=0 / qpmax=69 / qpstep=4 / cplxblur=20.0 / qblur=0.5 / vbv_maxrate=14000 / vbv_bufsize=12500 / nal_hrd=none / filler=0 / ip_ratio=1.40 / aq=1:1.00
  36. Language                                 : English
  37. Default                                  : Yes
  38. Forced                                   : No
  39.  
  40. Audio #1
  41. ID                                       : 2
  42. Format                                   : AAC LC SBR
  43. Format/Info                              : Advanced Audio Codec Low Complexity with Spectral Band Replication
  44. Commercial name                          : HE-AAC
  45. Format settings                          : Explicit
  46. Codec ID                                 : A_AAC-2
  47. Duration                                 : 2 h 1 min
  48. Bit rate                                 : 53.8 kb/s
  49. Channel(s)                               : 2 channels
  50. Channel layout                           : L R
  51. Sampling rate                            : 48.0 kHz
  52. Frame rate                               : 23.438 FPS (2048 SPF)
  53. Compression mode                         : Lossy
  54. Delay relative to video                  : 31 ms
  55. Stream size                              : 46.7 MiB (10%)
  56. Title                                    : [www.MoviezAddiction.space]
  57. Language                                 : English
  58. Default                                  : No
  59. Forced                                   : No
  60.  
  61. Audio #2
  62. ID                                       : 5
  63. Format                                   : AAC LC
  64. Format/Info                              : Advanced Audio Codec Low Complexity
  65. Codec ID                                 : A_AAC-2
  66. Duration                                 : 2 h 1 min
  67. Bit rate                                 : 53.4 kb/s
  68. Channel(s)                               : 2 channels
  69. Channel layout                           : L R
  70. Sampling rate                            : 48.0 kHz
  71. Frame rate                               : 46.875 FPS (1024 SPF)
  72. Compression mode                         : Lossy
  73. Delay relative to video                  : 870 ms
  74. Stream size                              : 46.3 MiB (10%)
  75. Title                                    : [www.MoviezAddiction.space]
  76. Language                                 : Hindi
  77. Default                                  : Yes
  78. Forced                                   : Yes
  79.  
  80. Text #1
  81. ID                                       : 3
  82. Format                                   : UTF-8
  83. Codec ID                                 : S_TEXT/UTF8
  84. Codec ID/Info                            : UTF-8 Plain Text
  85. Duration                                 : 1 h 50 min
  86. Bit rate                                 : 44 b/s
  87. Count of elements                        : 1044
  88. Stream size                              : 35.9 KiB (0%)
  89. Title                                    : [www.MoviezAddiction.space]
  90. Language                                 : English
  91. Default                                  : No
  92. Forced                                   : No
  93.  
  94. Text #2
  95. ID                                       : 4
  96. Format                                   : UTF-8
  97. Codec ID                                 : S_TEXT/UTF8
  98. Codec ID/Info                            : UTF-8 Plain Text
  99. Duration                                 : 1 h 53 min
  100. Bit rate                                 : 48 b/s
  101. Count of elements                        : 1231
  102. Stream size                              : 40.1 KiB (0%)
  103. Title                                    : [www.MoviezAddiction.space]
  104. Language                                 : English
  105. Default                                  : No
  106. Forced                                   : No
  107.  
  108. Menu
  109. 00:00:00.000                             : en:00:00:00.000
  110. 00:07:14.351                             : en:00:07:14.351
  111. 00:12:55.108                             : en:00:12:55.108
  112. 00:20:04.370                             : en:00:20:04.370
  113. 00:25:24.815                             : en:00:25:24.815
  114. 00:32:11.596                             : en:00:32:11.596
  115. 00:39:24.821                             : en:00:39:24.821
  116. 00:46:15.314                             : en:00:46:15.314
  117. 00:53:24.576                             : en:00:53:24.576
  118. 01:01:40.322                             : en:01:01:40.322
  119. 01:10:49.120                             : en:01:10:49.120
  120. 01:18:02.887                             : en:01:18:02.887
  121. 01:30:59.371                             : en:01:30:59.371
  122. 01:36:57.770                             : en:01:36:57.770
  123. 01:47:42.039                             : en:01:47:42.039
  124. 01:54:12.804                             : en:01:54:12.804