The text below is selected, press Ctrl+C to copy to your clipboard. (⌘+C on Mac) No line numbers will be copied.
Star Wars The Bad Batch...

17th January 2023 09:23:21 AM | Views: 9
  1. Format                                   : Matroska
  2. Format version                           : Version 4
  3. File size                                : 2.46 GiB
  4. Duration                                 : 21 min 54 s
  5. Overall bit rate                         : 16.1 Mb/s
  6. Movie name                               : Star Wars The Bad Batch (2023) S02E01 [Spoils of War] 2160p DSNP UHD WEB-DL x265 10bit HDR HEVC English DDP5.1 ESub 2.46GB [MoviezAddiction]
  7. Encoded date                             : UTC 2023-01-05 01:26:16
  8. Writing application                      : mkvmerge v72.0.0 ('Minuano (Six-eight)') 64-bit
  9. Writing library                          : libebml v1.4.4 + libmatroska v1.7.1
  10.  
  11. Video
  12. ID                                       : 1
  13. Format                                   : HEVC
  14. Format/Info                              : High Efficiency Video Coding
  15. Format profile                           : Main [email protected]@High
  16. HDR format                               : SMPTE ST 2086, HDR10 compatible
  17. Codec ID                                 : V_MPEGH/ISO/HEVC
  18. Duration                                 : 21 min 54 s
  19. Bit rate                                 : 15.8 Mb/s
  20. Width                                    : 3 840 pixels
  21. Height                                   : 2 160 pixels
  22. Display aspect ratio                     : 16:9
  23. Frame rate mode                          : Constant
  24. Frame rate                               : 24.000 FPS
  25. Color space                              : YUV
  26. Chroma subsampling                       : 4:2:0
  27. Bit depth                                : 10 bits
  28. Bits/(Pixel*Frame)                       : 0.080
  29. Stream size                              : 2.42 GiB (98%)
  30. Default                                  : Yes
  31. Forced                                   : No
  32. Color range                              : Limited
  33. Color primaries                          : BT.2020
  34. Transfer characteristics                 : PQ
  35. Matrix coefficients                      : BT.2020 non-constant
  36. Mastering display color primaries        : BT.2020
  37. Mastering display luminance              : min: 0.0001 cd/m2, max: 1000 cd/m2
  38.  
  39. Audio
  40. ID                                       : 2
  41. Format                                   : E-AC-3
  42. Format/Info                              : Enhanced AC-3
  43. Commercial name                          : Dolby Digital Plus
  44. Codec ID                                 : A_EAC3
  45. Duration                                 : 21 min 54 s
  46. Bit rate mode                            : Constant
  47. Bit rate                                 : 256 kb/s
  48. Channel(s)                               : 6 channels
  49. Channel layout                           : L R C LFE Ls Rs
  50. Sampling rate                            : 48.0 kHz
  51. Frame rate                               : 31.250 FPS (1536 SPF)
  52. Compression mode                         : Lossy
  53. Stream size                              : 40.1 MiB (2%)
  54. Title                                    : English
  55. Language                                 : English
  56. Service kind                             : Complete Main
  57. Default                                  : Yes
  58. Forced                                   : No
  59.  
  60. Text
  61. ID                                       : 3
  62. Format                                   : UTF-8
  63. Codec ID                                 : S_TEXT/UTF8
  64. Codec ID/Info                            : UTF-8 Plain Text
  65. Duration                                 : 20 min 4 s
  66. Bit rate                                 : 54 b/s
  67. Count of elements                        : 225
  68. Stream size                              : 8.05 KiB (0%)
  69. Title                                    : English [SRT]
  70. Language                                 : English
  71. Default                                  : Yes
  72. Forced                                   : No