The text below is selected, press Ctrl+C to copy to your clipboard. (⌘+C on Mac) No line numbers will be copied.
Last Action Hero (1993) 1080p...

12th November 2022 04:51:30 PM | Views: 15
  1. Format                                   : Matroska
  2. Format version                           : Version 4
  3. File size                                : 29.7 GiB
  4. Duration                                 : 2 h 10 min
  5. Overall bit rate mode                    : Variable
  6. Overall bit rate                         : 32.5 Mb/s
  7. Movie name                               : Last Action Hero (1993) 1080p BluRay REMUX x264 Dual Audio [Hindi TV-DL DDP2.0 + English DTS-HD MA 7.1] ESub 29.7GB [MoviezAddiction.life]
  8. Encoded date                             : UTC 2022-11-12 12:10:32
  9. Writing application                      : mkvmerge v71.1.0 ('Fortitude') 64-bit
  10. Writing library                          : libebml v1.4.4 + libmatroska v1.7.1
  11.  
  12. Video
  13. ID                                       : 1
  14. Format                                   : AVC
  15. Format/Info                              : Advanced Video Codec
  16. Format profile                           : [email protected]
  17. Format settings                          : CABAC / 2 Ref Frames
  18. Format settings, CABAC                   : Yes
  19. Format settings, Reference frames        : 2 frames
  20. Codec ID                                 : V_MPEG4/ISO/AVC
  21. Duration                                 : 2 h 10 min
  22. Bit rate mode                            : Variable
  23. Bit rate                                 : 27.9 Mb/s
  24. Width                                    : 1 920 pixels
  25. Height                                   : 1 080 pixels
  26. Display aspect ratio                     : 16:9
  27. Frame rate mode                          : Constant
  28. Frame rate                               : 23.976 (24000/1001) FPS
  29. Color space                              : YUV
  30. Chroma subsampling                       : 4:2:0
  31. Bit depth                                : 8 bits
  32. Scan type                                : Progressive
  33. Bits/(Pixel*Frame)                       : 0.561
  34. Stream size                              : 25.5 GiB (86%)
  35. Default                                  : Yes
  36. Forced                                   : No
  37.  
  38. Audio #1
  39. ID                                       : 2
  40. Format                                   : E-AC-3
  41. Format/Info                              : Enhanced AC-3
  42. Commercial name                          : Dolby Digital Plus
  43. Codec ID                                 : A_EAC3
  44. Duration                                 : 2 h 10 min
  45. Bit rate mode                            : Constant
  46. Bit rate                                 : 224 kb/s
  47. Channel(s)                               : 2 channels
  48. Channel layout                           : L R
  49. Sampling rate                            : 48.0 kHz
  50. Frame rate                               : 31.250 FPS (1536 SPF)
  51. Compression mode                         : Lossy
  52. Delay relative to video                  : -600 ms
  53. Stream size                              : 210 MiB (1%)
  54. Title                                    : Hindi
  55. Language                                 : Hindi
  56. Service kind                             : Complete Main
  57. Default                                  : Yes
  58. Forced                                   : No
  59.  
  60. Audio #2
  61. ID                                       : 3
  62. Format                                   : DTS XLL
  63. Format/Info                              : Digital Theater Systems
  64. Commercial name                          : DTS-HD Master Audio
  65. Codec ID                                 : A_DTS
  66. Duration                                 : 2 h 10 min
  67. Bit rate mode                            : Variable
  68. Bit rate                                 : 4 336 kb/s
  69. Channel(s)                               : 8 channels
  70. Channel layout                           : C L R LFE Lb Rb Lss Rss
  71. Sampling rate                            : 48.0 kHz
  72. Frame rate                               : 93.750 FPS (512 SPF)
  73. Bit depth                                : 24 bits
  74. Compression mode                         : Lossless
  75. Delay relative to video                  : -1 s 54 ms
  76. Stream size                              : 3.97 GiB (13%)
  77. Title                                    : English
  78. Language                                 : English
  79. Default                                  : No
  80. Forced                                   : No
  81.  
  82. Text
  83. ID                                       : 4
  84. ID in the original source medium         : 4769 (0x12A1)
  85. Format                                   : PGS
  86. Codec ID                                 : S_HDMV/PGS
  87. Codec ID/Info                            : Picture based subtitle format used on BDs/HD-DVDs
  88. Duration                                 : 2 h 2 min
  89. Bit rate                                 : 33.3 kb/s
  90. Frame rate                               : 0.362 FPS
  91. Count of elements                        : 2658
  92. Stream size                              : 29.2 MiB (0%)
  93. Title                                    : English [PGS]
  94. Language                                 : English
  95. Default                                  : Yes
  96. Forced                                   : No
  97. Original source medium                   : Blu-ray
  98.  
  99. Menu
  100. 00:00:01.654                             : :Introduction
  101. 00:00:14.654                             : :Start
  102. 00:06:39.355                             : :Focus
  103. 00:09:06.488                             : :First Action Hero
  104. 00:11:20.289                             : :Wyle E. Coyote
  105. 00:13:03.090                             : :Tough Guys and Handcuffs
  106. 00:14:48.424                             : :Precinct Reality
  107. 00:15:49.958                             : :A Preview, a Passport and a Warning
  108. 00:18:43.258                             : :Jack Slater IV
  109. 00:19:39.825                             : :An Eye for Evil
  110. 00:21:36.693                             : :Sicilian Funeral Arrangements
  111. 00:22:26.860                             : :Frank's Farewell and Tony's Hello
  112. 00:25:03.461                             : :Bonneville, Desert Eagle, and a Dynamite Drive-By
  113. 00:26:38.961                             : :"Close Your Eyes, Stay Flat, and Don't Move"
  114. 00:28:00.128                             : :No Hand, New Tunes
  115. 00:30:43.495                             : :Playing Chicken
  116. 00:32:11.096                             : :LAPD...Movie-Style
  117. 00:32:51.463                             : :The Guy Who Killed Mozart
  118. 00:34:28.496                             : :Cartoon Cats and Dearest Friends
  119. 00:37:11.863                             : :Perfect Buddy-Movie Potential
  120. 00:38:39.297                             : :10 Minutes to Prove It
  121. 00:40:45.631                             : :Decoder-Ring Magic
  122. 00:42:15.365                             : :The Tinman and the Henchman
  123. 00:44:53.966                             : :Bull's-Eye
  124. 00:45:43.800                             : :A Stretch and a Kiss
  125. 00:47:02.300                             : :Money to Burn and a Newsstand Memory
  126. 00:49:38.834                             : :The Virtue of Silence
  127. 00:52:00.867                             : :The $2000 Payoff and a Red-Smoke Warning
  128. 00:53:08.701                             : :Like Daddy, Like Daughter
  129. 00:54:03.302                             : :Skeezy at the Door and Slater Through the Roof
  130. 00:56:47.469                             : :Chicken on a Bike
  131. 00:59:55.936                             : :An Evening with the Slater Family
  132. 01:01:49.904                             : :Shattered Glass, Smoking Ears and a Funeral Invite
  133. 01:03:26.772                             : :Where Heroes Dare to Dwell
  134. 01:05:59.772                             : :"Leo the Fart Is Gonna Pass Gas One More Time"
  135. 01:07:14.272                             : :Paying Respects and the Classic Movie Mistake
  136. 01:10:49.839                             : :Slater in Front of the Eight-Ball
  137. 01:12:05.740                             : :A Crane, a Wrecking Ball, and a Ticking Corpse
  138. 01:15:35.608                             : :Elevating Firepower
  139. 01:18:23.542                             : :The Pits
  140. 01:20:29.575                             : :360S, 180S and Parallel Worlds
  141. 01:24:23.042                             : :New York City
  142. 01:28:24.442                             : :Worse Things Than Movies
  143. 01:32:22.776                             : :Benedict Tests a Theory
  144. 01:34:48.343                             : :Mozart Lives
  145. 01:38:05.077                             : :Taking Slater Out of the Picture
  146. 01:42:37.411                             : :The Ripper Goes to the Premiere
  147. 01:45:34.745                             : :Seeing Double
  148. 01:47:22.179                             : :On the Roof, Over the Edge and 2000 Volts
  149. 01:51:29.212                             : :A World Where the Bad Guys Can Win
  150. 01:54:36.712                             : :"We Gotta Get Him Back to the Movies"
  151. 01:58:55.979                             : :Movie Magic
  152. 01:59:48.646                             : :Not Even a Flesh Wound
  153. 02:02:09.080                             : :A Hero, a Script and the Comic Relief
  154. 02:03:43.447                             : :End Credits