The text below is selected, press Ctrl+C to copy to your clipboard. (⌘+C on Mac) No line numbers will be copied.
The Theory of Everything (2014)...

16th October 2020 07:52:32 AM | Views: 16
  1. Format                                   : Matroska
  2. Format version                           : Version 4
  3. File size                                : 499 MiB
  4. Duration                                 : 2 h 3 min
  5. Overall bit rate                         : 564 kb/s
  6. Movie name                               : The Theory of Everything (2014) 480p Bluray x264 Dual Audio [ Hindi DD2.0 + English DD2.0 ] ESubs [www.MoviezAddiction.space]
  7. Encoded date                             : UTC 2020-10-16 05:42:40
  8. Writing application                      : mkvmerge v51.0.0 ('I Wish') 64-bit
  9. Writing library                          : libebml v1.4.0 + libmatroska v1.6.2
  10.  
  11. Video
  12. ID                                       : 2
  13. Format                                   : AVC
  14. Format/Info                              : Advanced Video Codec
  15. Format profile                           : [email protected]
  16. Format settings                          : CABAC / 5 Ref Frames
  17. Format settings, CABAC                   : Yes
  18. Format settings, Reference frames        : 5 frames
  19. Codec ID                                 : V_MPEG4/ISO/AVC
  20. Duration                                 : 2 h 3 min
  21. Bit rate                                 : 456 kb/s
  22. Width                                    : 864 pixels
  23. Height                                   : 360 pixels
  24. Display aspect ratio                     : 2.40:1
  25. Frame rate mode                          : Constant
  26. Frame rate                               : 23.976 (24000/1001) FPS
  27. Color space                              : YUV
  28. Chroma subsampling                       : 4:2:0
  29. Bit depth                                : 8 bits
  30. Scan type                                : Progressive
  31. Bits/(Pixel*Frame)                       : 0.061
  32. Stream size                              : 403 MiB (81%)
  33. Title                                    : [www.MoviezAddiction.space]
  34. Writing library                          : x264 core 148 r2694 3b70645
  35. Encoding settings                        : cabac=1 / ref=5 / deblock=1:-1:-1 / analyse=0x3:0x113 / me=umh / subme=8 / psy=1 / psy_rd=1.00:0.15 / mixed_ref=1 / me_range=16 / chroma_me=1 / trellis=1 / 8x8dct=1 / cqm=0 / deadzone=21,11 / fast_pskip=1 / chroma_qp_offset=-3 / threads=11 / lookahead_threads=1 / sliced_threads=0 / nr=0 / decimate=1 / interlaced=0 / bluray_compat=0 / constrained_intra=0 / bframes=3 / b_pyramid=2 / b_adapt=2 / b_bias=0 / direct=3 / weightb=1 / open_gop=0 / weightp=2 / keyint=250 / keyint_min=23 / scenecut=40 / intra_refresh=0 / rc_lookahead=50 / rc=2pass / mbtree=1 / bitrate=456 / ratetol=1.0 / qcomp=0.60 / qpmin=0 / qpmax=69 / qpstep=4 / cplxblur=20.0 / qblur=0.5 / vbv_maxrate=14000 / vbv_bufsize=12500 / nal_hrd=none / filler=0 / ip_ratio=1.40 / aq=1:1.00
  36. Language                                 : English
  37. Default                                  : Yes
  38. Forced                                   : No
  39.  
  40. Audio #1
  41. ID                                       : 1
  42. Format                                   : AAC LC
  43. Format/Info                              : Advanced Audio Codec Low Complexity
  44. Codec ID                                 : A_AAC-2
  45. Duration                                 : 2 h 3 min
  46. Bit rate                                 : 53.4 kb/s
  47. Channel(s)                               : 2 channels
  48. Channel layout                           : L R
  49. Sampling rate                            : 48.0 kHz
  50. Frame rate                               : 46.875 FPS (1024 SPF)
  51. Compression mode                         : Lossy
  52. Delay relative to video                  : -6 s 578 ms
  53. Stream size                              : 47.2 MiB (9%)
  54. Title                                    : [www.MoviezAddiction.space]
  55. Language                                 : Hindi
  56. Default                                  : Yes
  57. Forced                                   : Yes
  58.  
  59. Audio #2
  60. ID                                       : 3
  61. Format                                   : AAC LC SBR
  62. Format/Info                              : Advanced Audio Codec Low Complexity with Spectral Band Replication
  63. Commercial name                          : HE-AAC
  64. Format settings                          : Explicit
  65. Codec ID                                 : A_AAC-2
  66. Duration                                 : 2 h 3 min
  67. Bit rate                                 : 52.6 kb/s
  68. Channel(s)                               : 2 channels
  69. Channel layout                           : L R
  70. Sampling rate                            : 48.0 kHz
  71. Frame rate                               : 23.438 FPS (2048 SPF)
  72. Compression mode                         : Lossy
  73. Delay relative to video                  : 31 ms
  74. Stream size                              : 46.4 MiB (9%)
  75. Title                                    : [www.MoviezAddiction.space]
  76. Language                                 : English
  77. Default                                  : No
  78. Forced                                   : No
  79.  
  80. Text #1
  81. ID                                       : 4
  82. Format                                   : UTF-8
  83. Codec ID                                 : S_TEXT/UTF8
  84. Codec ID/Info                            : UTF-8 Plain Text
  85. Duration                                 : 1 h 53 min
  86. Bit rate                                 : 38 b/s
  87. Count of elements                        : 1040
  88. Stream size                              : 32.5 KiB (0%)
  89. Title                                    : [www.MoviezAddiction.space]
  90. Language                                 : English
  91. Default                                  : No
  92. Forced                                   : No
  93.  
  94. Text #2
  95. ID                                       : 5
  96. Format                                   : UTF-8
  97. Codec ID                                 : S_TEXT/UTF8
  98. Codec ID/Info                            : UTF-8 Plain Text
  99. Duration                                 : 1 h 53 min
  100. Bit rate                                 : 44 b/s
  101. Count of elements                        : 1357
  102. Stream size                              : 37.0 KiB (0%)
  103. Title                                    : [www.MoviezAddiction.space]
  104. Language                                 : English
  105. Default                                  : No
  106. Forced                                   : No
  107.  
  108. Menu
  109. 00:00:00.000                             : en:Chapter 01
  110. 00:05:38.838                             : en:Chapter 02
  111. 00:10:19.619                             : en:Chapter 03
  112. 00:14:58.647                             : en:Chapter 04
  113. 00:19:52.524                             : en:Chapter 05
  114. 00:27:27.479                             : en:Chapter 06
  115. 00:36:14.672                             : en:Chapter 07
  116. 00:42:12.988                             : en:Chapter 08
  117. 00:49:21.541                             : en:Chapter 09
  118. 00:54:10.622                             : en:Chapter 10
  119. 01:01:03.785                             : en:Chapter 11
  120. 01:10:29.516                             : en:Chapter 12
  121. 01:17:11.084                             : en:Chapter 13
  122. 01:24:26.227                             : en:Chapter 14
  123. 01:30:39.100                             : en:Chapter 15
  124. 01:35:16.961                             : en:Chapter 16
  125. 01:40:20.931                             : en:Chapter 17
  126. 01:45:01.044                             : en:Chapter 18
  127. 01:52:26.448                             : en:Chapter 19
  128. 01:57:04.058                             : en:Chapter 20