The text below is selected, press Ctrl+C to copy to your clipboard. (⌘+C on Mac) No line numbers will be copied.
Doraemon Nobitas Chronicle of the...

23rd January 2023 05:46:27 AM | Views: 4
  1. Format                                   : Matroska
  2. Format version                           : Version 4
  3. File size                                : 3.24 GiB
  4. Duration                                 : 1 h 50 min
  5. Overall bit rate                         : 4 195 kb/s
  6. Movie name                               : Doraemon Nobita's Chronicle of the Moon Exploration (2019) 1080p BluRay x264 Hindi TV-DL DDP2.0 ESub 3.24GB [MoviezAddiction]
  7. Encoded date                             : UTC 2023-01-23 04:40:37
  8. Writing application                      : mkvmerge v72.0.0 ('Minuano (Six-eight)') 64-bit
  9. Writing library                          : libebml v1.4.4 + libmatroska v1.7.1
  10.  
  11. Video
  12. ID                                       : 1
  13. Format                                   : AVC
  14. Format/Info                              : Advanced Video Codec
  15. Format profile                           : [email protected]
  16. Format settings                          : CABAC / 4 Ref Frames
  17. Format settings, CABAC                   : Yes
  18. Format settings, Reference frames        : 4 frames
  19. Codec ID                                 : V_MPEG4/ISO/AVC
  20. Duration                                 : 1 h 50 min
  21. Bit rate                                 : 4 000 kb/s
  22. Width                                    : 1 920 pixels
  23. Height                                   : 1 080 pixels
  24. Display aspect ratio                     : 16:9
  25. Frame rate mode                          : Variable
  26. Frame rate                               : 23.976 (24000/1001) FPS
  27. Color space                              : YUV
  28. Chroma subsampling                       : 4:2:0
  29. Bit depth                                : 8 bits
  30. Scan type                                : Progressive
  31. Bits/(Pixel*Frame)                       : 0.080
  32. Stream size                              : 3.09 GiB (95%)
  33. Default                                  : Yes
  34. Forced                                   : No
  35.  
  36. Audio
  37. ID                                       : 2
  38. Format                                   : E-AC-3
  39. Format/Info                              : Enhanced AC-3
  40. Commercial name                          : Dolby Digital Plus
  41. Codec ID                                 : A_EAC3
  42. Duration                                 : 1 h 50 min
  43. Bit rate mode                            : Constant
  44. Bit rate                                 : 192 kb/s
  45. Channel(s)                               : 2 channels
  46. Channel layout                           : L R
  47. Sampling rate                            : 48.0 kHz
  48. Frame rate                               : 31.250 FPS (1536 SPF)
  49. Compression mode                         : Lossy
  50. Stream size                              : 152 MiB (5%)
  51. Title                                    : Hindi
  52. Language                                 : Hindi
  53. Service kind                             : Complete Main
  54. Default                                  : Yes
  55. Forced                                   : No
  56.  
  57. Text
  58. ID                                       : 3
  59. Format                                   : ASS
  60. Codec ID                                 : S_TEXT/ASS
  61. Codec ID/Info                            : Advanced Sub Station Alpha
  62. Duration                                 : 1 h 50 min
  63. Bit rate                                 : 91 b/s
  64. Frame rate                               : 0.249 FPS
  65. Count of elements                        : 1654
  66. Compression mode                         : Lossless
  67. Stream size                              : 74.0 KiB (0%)
  68. Title                                    : English [ASS]
  69. Language                                 : English
  70. Default                                  : Yes
  71. Forced                                   : No
  72.  
  73. Menu
  74. 00:00:02.009                             : en:第 01 章
  75. 00:03:41.270                             : en:第 02 章
  76. 00:05:10.901                             : en:第 03 章
  77. 00:22:29.856                             : en:第 04 章
  78. 00:40:45.659                             : en:第 05 章
  79. 01:03:49.333                             : en:第 06 章
  80. 01:29:06.640                             : en:第 07 章
  81. 01:46:37.482                             : en:第 08 章
  82. 01:50:00.601                             : en:第 09 章