The text below is selected, press Ctrl+C to copy to your clipboard. (⌘+C on Mac) No line numbers will be copied.
Mirage (2018) 1080p BluRay REMUX...

16th January 2023 03:41:44 PM | Views: 6
  1. Format                                   : Matroska
  2. Format version                           : Version 4
  3. File size                                : 21.7 GiB
  4. Duration                                 : 2 h 8 min
  5. Overall bit rate mode                    : Variable
  6. Overall bit rate                         : 24.1 Mb/s
  7. Movie name                               : Mirage (2018) 1080p BluRay REMUX x264 Hindi DDP5.1 ESub 21.6GB [MoviezAddiction]
  8. Encoded date                             : UTC 2023-01-16 09:18:25
  9. Writing application                      : mkvmerge v72.0.0 ('Minuano (Six-eight)') 64-bit
  10. Writing library                          : libebml v1.4.4 + libmatroska v1.7.1
  11.  
  12. Video
  13. ID                                       : 1
  14. Format                                   : AVC
  15. Format/Info                              : Advanced Video Codec
  16. Format profile                           : [email protected]
  17. Format settings                          : CABAC / 4 Ref Frames
  18. Format settings, CABAC                   : Yes
  19. Format settings, Reference frames        : 4 frames
  20. Codec ID                                 : V_MPEG4/ISO/AVC
  21. Duration                                 : 2 h 8 min
  22. Bit rate mode                            : Variable
  23. Bit rate                                 : 23.4 Mb/s
  24. Maximum bit rate                         : 35.0 Mb/s
  25. Width                                    : 1 920 pixels
  26. Height                                   : 1 080 pixels
  27. Display aspect ratio                     : 16:9
  28. Frame rate mode                          : Constant
  29. Frame rate                               : 23.976 (24000/1001) FPS
  30. Standard                                 : NTSC
  31. Color space                              : YUV
  32. Chroma subsampling                       : 4:2:0
  33. Bit depth                                : 8 bits
  34. Scan type                                : Progressive
  35. Bits/(Pixel*Frame)                       : 0.471
  36. Stream size                              : 21.1 GiB (97%)
  37. Default                                  : Yes
  38. Forced                                   : No
  39. Color range                              : Limited
  40. Color primaries                          : BT.709
  41. Transfer characteristics                 : BT.709
  42. Matrix coefficients                      : BT.709
  43.  
  44. Audio
  45. ID                                       : 2
  46. Format                                   : E-AC-3
  47. Format/Info                              : Enhanced AC-3
  48. Commercial name                          : Dolby Digital Plus
  49. Codec ID                                 : A_EAC3
  50. Duration                                 : 2 h 8 min
  51. Bit rate mode                            : Constant
  52. Bit rate                                 : 640 kb/s
  53. Channel(s)                               : 6 channels
  54. Channel layout                           : L R C LFE Ls Rs
  55. Sampling rate                            : 48.0 kHz
  56. Frame rate                               : 31.250 FPS (1536 SPF)
  57. Compression mode                         : Lossy
  58. Stream size                              : 590 MiB (3%)
  59. Title                                    : Hindi
  60. Language                                 : Hindi
  61. Service kind                             : Complete Main
  62. Default                                  : Yes
  63. Forced                                   : No
  64.  
  65. Text
  66. ID                                       : 3
  67. Format                                   : PGS
  68. Codec ID                                 : S_HDMV/PGS
  69. Codec ID/Info                            : Picture based subtitle format used on BDs/HD-DVDs
  70. Duration                                 : 2 h 7 min
  71. Bit rate                                 : 25.0 kb/s
  72. Frame rate                               : 0.365 FPS
  73. Count of elements                        : 2796
  74. Stream size                              : 22.9 MiB (0%)
  75. Title                                    : English [PGS]
  76. Language                                 : English
  77. Default                                  : Yes
  78. Forced                                   : No
  79.  
  80. Menu
  81. 00:00:00.000                             : Chapter 01
  82. 00:08:02.565                             : Chapter 02
  83. 00:16:47.340                             : Chapter 03
  84. 00:24:41.313                             : Chapter 04
  85. 00:32:52.888                             : Chapter 05
  86. 00:38:51.704                             : Chapter 06
  87. 00:48:31.117                             : Chapter 07
  88. 00:56:32.014                             : Chapter 08
  89. 01:03:06.324                             : Chapter 09
  90. 01:10:32.061                             : Chapter 10
  91. 01:17:45.744                             : Chapter 11
  92. 01:26:27.682                             : Chapter 12
  93. 01:35:39.692                             : Chapter 13
  94. 01:43:52.643                             : Chapter 14
  95. 01:52:36.541                             : Chapter 15
  96. 02:02:20.375                             : Chapter 16