The text below is selected, press Ctrl+C to copy to your clipboard. (⌘+C on Mac) No line numbers will be copied.
Closed Circuit (2013) 1080p Bluray...

10th September 2020 04:18:43 PM | Views: 24
  1. Format                                   : Matroska
  2. Format version                           : Version 4
  3. File size                                : 5.37 GiB
  4. Duration                                 : 1 h 36 min
  5. Overall bit rate mode                    : Variable
  6. Overall bit rate                         : 8 008 kb/s
  7. Movie name                               : Closed Circuit (2013) 1080p Bluray x264 Dual Audio [ Hindi HDTV2.0 + English DTS-HD5.1 ] ESub [www.MoviezAddiction.space]
  8. Encoded date                             : UTC 2020-09-10 13:37:30
  9. Writing application                      : mkvmerge v48.0.0 ('Fortress Around Your Heart') 64-bit
  10. Writing library                          : libebml v1.4.0 + libmatroska v1.6.0
  11.  
  12. Video
  13. ID                                       : 1
  14. Format                                   : AVC
  15. Format/Info                              : Advanced Video Codec
  16. Format profile                           : [email protected]
  17. Format settings                          : CABAC / 5 Ref Frames
  18. Format settings, CABAC                   : Yes
  19. Format settings, Reference frames        : 5 frames
  20. Codec ID                                 : V_MPEG4/ISO/AVC
  21. Duration                                 : 1 h 36 min
  22. Bit rate                                 : 4 000 kb/s
  23. Width                                    : 1 920 pixels
  24. Height                                   : 800 pixels
  25. Display aspect ratio                     : 2.40:1
  26. Frame rate mode                          : Constant
  27. Frame rate                               : 23.976 (24000/1001) FPS
  28. Color space                              : YUV
  29. Chroma subsampling                       : 4:2:0
  30. Bit depth                                : 8 bits
  31. Scan type                                : Progressive
  32. Bits/(Pixel*Frame)                       : 0.109
  33. Stream size                              : 2.68 GiB (50%)
  34. Title                                    : [www.MoviezAddiction.space]
  35. Writing library                          : x264 core 160 r3000 33f9e14
  36. Encoding settings                        : cabac=1 / ref=5 / deblock=1:0:0 / analyse=0x3:0x113 / me=hex / subme=8 / psy=1 / psy_rd=1.00:0.00 / mixed_ref=1 / me_range=16 / chroma_me=1 / trellis=2 / 8x8dct=1 / cqm=0 / deadzone=21,11 / fast_pskip=1 / chroma_qp_offset=-2 / threads=12 / lookahead_threads=2 / sliced_threads=0 / nr=0 / decimate=1 / interlaced=0 / bluray_compat=0 / constrained_intra=0 / bframes=3 / b_pyramid=2 / b_adapt=1 / b_bias=0 / direct=3 / weightb=1 / open_gop=0 / weightp=2 / keyint=250 / keyint_min=23 / scenecut=40 / intra_refresh=0 / rc_lookahead=50 / rc=2pass / mbtree=1 / bitrate=4000 / ratetol=1.0 / qcomp=0.60 / qpmin=0 / qpmax=69 / qpstep=4 / cplxblur=20.0 / qblur=0.5 / ip_ratio=1.40 / aq=1:1.00
  37. Language                                 : English
  38. Default                                  : Yes
  39. Forced                                   : No
  40.  
  41. Audio #1
  42. ID                                       : 3
  43. Format                                   : DTS XLL
  44. Format/Info                              : Digital Theater Systems
  45. Commercial name                          : DTS-HD Master Audio
  46. Codec ID                                 : A_DTS
  47. Duration                                 : 1 h 36 min
  48. Bit rate mode                            : Variable
  49. Bit rate                                 : 3 611 kb/s
  50. Channel(s)                               : 6 channels
  51. Channel layout                           : C L R Ls Rs LFE
  52. Sampling rate                            : 48.0 kHz
  53. Frame rate                               : 93.750 FPS (512 SPF)
  54. Bit depth                                : 24 bits
  55. Compression mode                         : Lossless
  56. Stream size                              : 2.42 GiB (45%)
  57. Title                                    : [www.MoviezAddiction.space]
  58. Language                                 : English
  59. Default                                  : No
  60. Forced                                   : No
  61.  
  62. Audio #2
  63. ID                                       : 4
  64. Format                                   : AC-3
  65. Format/Info                              : Audio Coding 3
  66. Commercial name                          : Dolby Digital
  67. Codec ID                                 : A_AC3
  68. Duration                                 : 1 h 36 min
  69. Bit rate mode                            : Constant
  70. Bit rate                                 : 384 kb/s
  71. Channel(s)                               : 2 channels
  72. Channel layout                           : L R
  73. Sampling rate                            : 48.0 kHz
  74. Frame rate                               : 31.250 FPS (1536 SPF)
  75. Compression mode                         : Lossy
  76. Stream size                              : 264 MiB (5%)
  77. Title                                    : [www.MoviezAddiction.space]
  78. Language                                 : Hindi
  79. Service kind                             : Complete Main
  80. Default                                  : Yes
  81. Forced                                   : Yes
  82.  
  83. Text
  84. ID                                       : 2
  85. Format                                   : PGS
  86. Muxing mode                              : zlib
  87. Codec ID                                 : S_HDMV/PGS
  88. Codec ID/Info                            : Picture based subtitle format used on BDs/HD-DVDs
  89. Duration                                 : 1 h 31 min
  90. Bit rate                                 : 43.1 kb/s
  91. Count of elements                        : 2447
  92. Stream size                              : 28.2 MiB (1%)
  93. Title                                    : [www.MoviezAddiction.space]
  94. Language                                 : English
  95. Default                                  : Yes
  96. Forced                                   : Yes