The text below is selected, press Ctrl+C to copy to your clipboard. (⌘+C on Mac) No line numbers will be copied.
Yaaram (2019) 1080p

29th June 2020 03:33:52 AM | Views: 5
  1. General
  2. Unique ID                                : 71955620886466495603745159277612995623 (0x36222603A6DCC9BE8C217B99FD219427)
  3. Complete name                            : S:\Yaaram (2019) Working\Yaaram (2019) 1080p WEB-DL x264 Hindi DD2.0 ESub - [Www.MoviezAddiction.Site].mkv
  4. Format                                   : Matroska
  5. Format version                           : Version 4
  6. File size                                : 1.92 GiB
  7. Duration                                 : 1 h 49 min
  8. Overall bit rate mode                    : Variable
  9. Overall bit rate                         : 2 503 kb/s
  10. Movie name                               : Yaaram (2019) 1080p WEB-DL x264 Hindi DD2.0 - [Www.MoviezAddiction.Site]
  11. Encoded date                             : UTC 2020-06-29 01:02:36
  12. Writing application                      : mkvmerge v47.0.0 ('Black Flag') 64-bit
  13. Writing library                          : libebml v1.3.10 + libmatroska v1.5.2
  14.  
  15. Video
  16. ID                                       : 1
  17. Format                                   : AVC
  18. Format/Info                              : Advanced Video Codec
  19. Format profile                           : [email protected]
  20. Format settings                          : CABAC / 4 Ref Frames
  21. Format settings, CABAC                   : Yes
  22. Format settings, Reference frames        : 4 frames
  23. Codec ID                                 : V_MPEG4/ISO/AVC
  24. Duration                                 : 1 h 49 min
  25. Bit rate                                 : 2 401 kb/s
  26. Width                                    : 1 920 pixels
  27. Height                                   : 804 pixels
  28. Display aspect ratio                     : 2.40:1
  29. Frame rate mode                          : Constant
  30. Frame rate                               : 24.000 FPS
  31. Color space                              : YUV
  32. Chroma subsampling                       : 4:2:0
  33. Bit depth                                : 8 bits
  34. Scan type                                : Progressive
  35. Bits/(Pixel*Frame)                       : 0.065
  36. Stream size                              : 1.84 GiB (96%)
  37. Title                                    : [Www.MoviezAddiction.Site]
  38. Writing library                          : x264 core 155 r2893 b00bcaf
  39. Encoding settings                        : cabac=1 / ref=3 / deblock=1:0:0 / analyse=0x1:0x111 / me=hex / subme=7 / psy=1 / psy_rd=1.00:0.00 / mixed_ref=1 / me_range=16 / chroma_me=1 / trellis=1 / 8x8dct=0 / cqm=0 / deadzone=21,11 / fast_pskip=1 / chroma_qp_offset=-2 / threads=12 / lookahead_threads=2 / sliced_threads=0 / nr=0 / decimate=1 / interlaced=0 / bluray_compat=0 / constrained_intra=0 / bframes=3 / b_pyramid=2 / b_adapt=1 / b_bias=0 / direct=1 / weightb=1 / open_gop=0 / weightp=2 / keyint=240 / keyint_min=24 / scenecut=40 / intra_refresh=0 / rc_lookahead=40 / rc=2pass / mbtree=1 / bitrate=2401 / ratetol=1.0 / qcomp=0.60 / qpmin=0 / qpmax=69 / qpstep=4 / cplxblur=20.0 / qblur=0.5 / vbv_maxrate=20000 / vbv_bufsize=25000 / nal_hrd=none / filler=0 / ip_ratio=1.40 / aq=1:1.00
  40. Default                                  : Yes
  41. Forced                                   : No
  42. Color range                              : Limited
  43. Color primaries                          : BT.709
  44. Transfer characteristics                 : BT.709
  45. Matrix coefficients                      : BT.709
  46.  
  47. Audio
  48. ID                                       : 2
  49. Format                                   : Vorbis
  50. Format settings, Floor                   : 1
  51. Codec ID                                 : A_VORBIS
  52. Duration                                 : 1 h 49 min
  53. Bit rate mode                            : Variable
  54. Bit rate                                 : 112 kb/s
  55. Channel(s)                               : 2 channels
  56. Sampling rate                            : 48.0 kHz
  57. Frame rate                               : 70.602 FPS (680 SPF)
  58. Compression mode                         : Lossy
  59. Stream size                              : 79.3 MiB (4%)
  60. Title                                    : [Www.MoviezAddiction.Site]
  61. Writing library                          : libVorbis (⛄⛄⛄⛄) (20150105 (⛄⛄⛄⛄))
  62. Language                                 : Hindi
  63. Default                                  : Yes
  64. Forced                                   : No