The text below is selected, press Ctrl+C to copy to your clipboard. (⌘+C on Mac) No line numbers will be copied.
Monster House (2006) 1080p

13th September 2020 07:43:15 AM | Views: 19
  1. Format                                   : Matroska
  2. Format version                           : Version 4
  3. File size                                : 3.08 GiB
  4. Duration                                 : 1 h 30 min
  5. Overall bit rate                         : 4 864 kb/s
  6. Movie name                               : Monster House (2006) 1080p Bluray x264 Dual Audio [ Hindi DD2.0 + English DD5.1 ] ESub [www.MoviezAddiction.space]
  7. Encoded date                             : UTC 2020-09-13 05:27:58
  8. Writing application                      : mkvmerge v48.0.0 ('Fortress Around Your Heart') 64-bit
  9. Writing library                          : libebml v1.4.0 + libmatroska v1.6.0
  10.  
  11. Video
  12. ID                                       : 1
  13. Format                                   : AVC
  14. Format/Info                              : Advanced Video Codec
  15. Format profile                           : [email protected]
  16. Format settings                          : CABAC / 5 Ref Frames
  17. Format settings, CABAC                   : Yes
  18. Format settings, Reference frames        : 5 frames
  19. Codec ID                                 : V_MPEG4/ISO/AVC
  20. Duration                                 : 1 h 30 min
  21. Bit rate                                 : 4 000 kb/s
  22. Width                                    : 1 920 pixels
  23. Height                                   : 800 pixels
  24. Display aspect ratio                     : 2.40:1
  25. Frame rate mode                          : Constant
  26. Frame rate                               : 23.976 (24000/1001) FPS
  27. Color space                              : YUV
  28. Chroma subsampling                       : 4:2:0
  29. Bit depth                                : 8 bits
  30. Scan type                                : Progressive
  31. Bits/(Pixel*Frame)                       : 0.109
  32. Stream size                              : 2.53 GiB (82%)
  33. Title                                    : [www.MoviezAddiction.space]
  34. Writing library                          : x264 core 160 r3000 33f9e14
  35. Encoding settings                        : cabac=1 / ref=5 / deblock=1:0:0 / analyse=0x3:0x113 / me=hex / subme=8 / psy=1 / psy_rd=1.00:0.00 / mixed_ref=1 / me_range=16 / chroma_me=1 / trellis=2 / 8x8dct=1 / cqm=0 / deadzone=21,11 / fast_pskip=1 / chroma_qp_offset=-2 / threads=12 / lookahead_threads=2 / sliced_threads=0 / nr=0 / decimate=1 / interlaced=0 / bluray_compat=0 / constrained_intra=0 / bframes=3 / b_pyramid=2 / b_adapt=1 / b_bias=0 / direct=3 / weightb=1 / open_gop=0 / weightp=2 / keyint=250 / keyint_min=23 / scenecut=40 / intra_refresh=0 / rc_lookahead=50 / rc=2pass / mbtree=1 / bitrate=4000 / ratetol=1.0 / qcomp=0.60 / qpmin=0 / qpmax=69 / qpstep=4 / cplxblur=20.0 / qblur=0.5 / ip_ratio=1.40 / aq=1:1.00
  36. Default                                  : Yes
  37. Forced                                   : No
  38.  
  39. Audio #1
  40. ID                                       : 2
  41. Format                                   : AC-3
  42. Format/Info                              : Audio Coding 3
  43. Commercial name                          : Dolby Digital
  44. Codec ID                                 : A_AC3
  45. Duration                                 : 1 h 30 min
  46. Bit rate mode                            : Constant
  47. Bit rate                                 : 640 kb/s
  48. Channel(s)                               : 6 channels
  49. Channel layout                           : L R C LFE Ls Rs
  50. Sampling rate                            : 48.0 kHz
  51. Frame rate                               : 31.250 FPS (1536 SPF)
  52. Compression mode                         : Lossy
  53. Stream size                              : 415 MiB (13%)
  54. Title                                    : [www.MoviezAddiction.space]
  55. Language                                 : English
  56. Service kind                             : Complete Main
  57. Default                                  : No
  58. Forced                                   : No
  59.  
  60. Audio #2
  61. ID                                       : 3
  62. Format                                   : AC-3
  63. Format/Info                              : Audio Coding 3
  64. Commercial name                          : Dolby Digital
  65. Codec ID                                 : A_AC3
  66. Duration                                 : 1 h 30 min
  67. Bit rate mode                            : Constant
  68. Bit rate                                 : 224 kb/s
  69. Channel(s)                               : 2 channels
  70. Channel layout                           : L R
  71. Sampling rate                            : 48.0 kHz
  72. Frame rate                               : 31.250 FPS (1536 SPF)
  73. Compression mode                         : Lossy
  74. Stream size                              : 145 MiB (5%)
  75. Title                                    : [www.MoviezAddiction.space]
  76. Language                                 : Hindi
  77. Service kind                             : Complete Main
  78. Default                                  : Yes
  79. Forced                                   : Yes
  80.  
  81. Text
  82. ID                                       : 4
  83. Format                                   : UTF-8
  84. Codec ID                                 : S_TEXT/UTF8
  85. Codec ID/Info                            : UTF-8 Plain Text
  86. Duration                                 : 1 h 28 min
  87. Bit rate                                 : 45 b/s
  88. Count of elements                        : 985
  89. Stream size                              : 29.2 KiB (0%)
  90. Title                                    : [www.MoviezAddiction.space]
  91. Language                                 : English
  92. Default                                  : Yes
  93. Forced                                   : Yes