The text below is selected, press Ctrl+C to copy to your clipboard. (⌘+C on Mac) No line numbers will be copied.
The Hatchet Wielding Hitchhiker (2023)...

24th January 2023 03:17:10 PM | Views: 7
  1. Format                                   : Matroska
  2. Format version                           : Version 4
  3. File size                                : 926 MiB
  4. Duration                                 : 1 h 27 min
  5. Overall bit rate                         : 1 484 kb/s
  6. Movie name                               : The Hatchet Wielding Hitchhiker (2023) 720p NF WEB-DL x264 Dual Audio [Hindi + English DD5.1] ESub 925MB [MoviezAddiction]
  7. Encoded date                             : UTC 2023-01-24 13:18:24
  8. Writing application                      : mkvmerge v72.0.0 ('Minuano (Six-eight)') 64-bit
  9. Writing library                          : libebml v1.4.4 + libmatroska v1.7.1
  10.  
  11. Video
  12. ID                                       : 1
  13. Format                                   : AVC
  14. Format/Info                              : Advanced Video Codec
  15. Format profile                           : [email protected]
  16. Format settings                          : CABAC / 4 Ref Frames
  17. Format settings, CABAC                   : Yes
  18. Format settings, Reference frames        : 4 frames
  19. Codec ID                                 : V_MPEG4/ISO/AVC
  20. Duration                                 : 1 h 27 min
  21. Bit rate                                 : 1 099 kb/s
  22. Width                                    : 1 280 pixels
  23. Height                                   : 720 pixels
  24. Display aspect ratio                     : 16:9
  25. Frame rate mode                          : Variable
  26. Frame rate                               : 23.976 (24000/1001) FPS
  27. Color space                              : YUV
  28. Chroma subsampling                       : 4:2:0
  29. Bit depth                                : 8 bits
  30. Scan type                                : Progressive
  31. Bits/(Pixel*Frame)                       : 0.050
  32. Stream size                              : 686 MiB (74%)
  33. Default                                  : Yes
  34. Forced                                   : No
  35.  
  36. Audio #1
  37. ID                                       : 2
  38. Format                                   : AAC LC SBR
  39. Format/Info                              : Advanced Audio Codec Low Complexity with Spectral Band Replication
  40. Commercial name                          : HE-AAC
  41. Format settings                          : Explicit
  42. Codec ID                                 : A_AAC-2
  43. Duration                                 : 1 h 27 min
  44. Bit rate                                 : 192 kb/s
  45. Channel(s)                               : 6 channels
  46. Channel layout                           : C L R Ls Rs LFE
  47. Sampling rate                            : 48.0 kHz
  48. Frame rate                               : 23.438 FPS (2048 SPF)
  49. Compression mode                         : Lossy
  50. Stream size                              : 119 MiB (13%)
  51. Title                                    : Hindi
  52. Language                                 : Hindi
  53. Default                                  : Yes
  54. Forced                                   : No
  55.  
  56. Audio #2
  57. ID                                       : 3
  58. Format                                   : AAC LC SBR
  59. Format/Info                              : Advanced Audio Codec Low Complexity with Spectral Band Replication
  60. Commercial name                          : HE-AAC
  61. Format settings                          : Explicit
  62. Codec ID                                 : A_AAC-2
  63. Duration                                 : 1 h 27 min
  64. Bit rate                                 : 192 kb/s
  65. Channel(s)                               : 6 channels
  66. Channel layout                           : C L R Ls Rs LFE
  67. Sampling rate                            : 48.0 kHz
  68. Frame rate                               : 23.438 FPS (2048 SPF)
  69. Compression mode                         : Lossy
  70. Stream size                              : 119 MiB (13%)
  71. Title                                    : English
  72. Language                                 : English
  73. Default                                  : No
  74. Forced                                   : No
  75.  
  76. Text
  77. ID                                       : 4
  78. Format                                   : UTF-8
  79. Codec ID                                 : S_TEXT/UTF8
  80. Codec ID/Info                            : UTF-8 Plain Text
  81. Duration                                 : 1 h 24 min
  82. Bit rate                                 : 112 b/s
  83. Frame rate                               : 0.298 FPS
  84. Count of elements                        : 1503
  85. Stream size                              : 69.1 KiB (0%)
  86. Title                                    : English [SRT]
  87. Language                                 : English
  88. Default                                  : Yes
  89. Forced                                   : No