The text below is selected, press Ctrl+C to copy to your clipboard. (⌘+C on Mac) No line numbers will be copied.
Halloween Kills (2021) EXTENDED 720p

13th January 2022 12:08:37 PM | Views: 61
  1. Format                                   : Matroska
  2. Format version                           : Version 4
  3. File size                                : 1.07 GiB
  4. Duration                                 : 1 h 49 min
  5. Overall bit rate                         : 1 404 kb/s
  6. Movie name                               : Halloween Kills (2021) EXTENDED 720p BluRay x264 English BD5.1 MSubs 1.07GB [www.MoviezAddiction.art]
  7. Encoded date                             : UTC 2022-01-13 11:01:18
  8. Writing application                      : mkvmerge v47.0.0 ('Black Flag') 64-bit
  9. Writing library                          : libebml v1.3.10 + libmatroska v1.5.2
  10.  
  11. Video
  12. ID                                       : 1
  13. Format                                   : AVC
  14. Format/Info                              : Advanced Video Codec
  15. Format profile                           : [email protected]
  16. Format settings                          : CABAC / 4 Ref Frames
  17. Format settings, CABAC                   : Yes
  18. Format settings, Reference frames        : 4 frames
  19. Codec ID                                 : V_MPEG4/ISO/AVC
  20. Duration                                 : 1 h 49 min
  21. Bit rate                                 : 1 099 kb/s
  22. Width                                    : 1 920 pixels
  23. Height                                   : 808 pixels
  24. Display aspect ratio                     : 2.40:1
  25. Frame rate mode                          : Variable
  26. Frame rate                               : 23.976 (24000/1001) FPS
  27. Color space                              : YUV
  28. Chroma subsampling                       : 4:2:0
  29. Bit depth                                : 8 bits
  30. Scan type                                : Progressive
  31. Bits/(Pixel*Frame)                       : 0.030
  32. Stream size                              : 857 MiB (78%)
  33. Title                                    : [www.MoviezAddiction.art]
  34. Default                                  : Yes
  35. Forced                                   : No
  36.  
  37. Audio
  38. ID                                       : 2
  39. Format                                   : AAC LC SBR
  40. Format/Info                              : Advanced Audio Codec Low Complexity with Spectral Band Replication
  41. Commercial name                          : HE-AAC
  42. Format settings                          : Explicit
  43. Codec ID                                 : A_AAC-2
  44. Duration                                 : 1 h 49 min
  45. Bit rate                                 : 192 kb/s
  46. Channel(s)                               : 6 channels
  47. Channel layout                           : C L R Ls Rs LFE
  48. Sampling rate                            : 48.0 kHz
  49. Frame rate                               : 23.438 FPS (2048 SPF)
  50. Compression mode                         : Lossy
  51. Stream size                              : 149 MiB (14%)
  52. Title                                    : [www.MoviezAddiction.art] - English
  53. Language                                 : English
  54. Default                                  : Yes
  55. Forced                                   : No
  56.  
  57. Text #1
  58. ID                                       : 3
  59. Format                                   : PGS
  60. Codec ID                                 : S_HDMV/PGS
  61. Codec ID/Info                            : Picture based subtitle format used on BDs/HD-DVDs
  62. Duration                                 : 1 h 45 min
  63. Bit rate                                 : 40.0 kb/s
  64. Count of elements                        : 2980
  65. Stream size                              : 30.1 MiB (3%)
  66. Title                                    : [www.MoviezAddiction.art] - English [PGS]
  67. Language                                 : English
  68. Default                                  : Yes
  69. Forced                                   : No
  70.  
  71. Text #2
  72. ID                                       : 4
  73. Format                                   : PGS
  74. Codec ID                                 : S_HDMV/PGS
  75. Codec ID/Info                            : Picture based subtitle format used on BDs/HD-DVDs
  76. Duration                                 : 1 h 44 min
  77. Bit rate                                 : 77.7 kb/s
  78. Count of elements                        : 3990
  79. Stream size                              : 57.9 MiB (5%)
  80. Title                                    : [www.MoviezAddiction.art] - English [SDH] [PGS]
  81. Language                                 : English
  82. Default                                  : No
  83. Forced                                   : No
  84.  
  85. Menu
  86. 00:00:00.000                             : Chapter 01
  87. 00:08:17.788                             : Chapter 02
  88. 00:15:10.659                             : Chapter 03
  89. 00:19:55.110                             : Chapter 04
  90. 00:26:17.576                             : Chapter 05
  91. 00:32:31.950                             : Chapter 06
  92. 00:38:01.612                             : Chapter 07
  93. 00:42:30.214                             : Chapter 08
  94. 00:46:52.935                             : Chapter 09
  95. 00:49:09.112                             : Chapter 10
  96. 00:55:07.721                             : Chapter 11
  97. 01:01:32.980                             : Chapter 12
  98. 01:06:04.585                             : Chapter 13
  99. 01:11:29.493                             : Chapter 14
  100. 01:16:19.408                             : Chapter 15
  101. 01:22:15.722                             : Chapter 16
  102. 01:26:25.805                             : Chapter 17
  103. 01:30:06.609                             : Chapter 18
  104. 01:35:24.593                             : Chapter 19
  105. 01:44:07.658                             : Chapter 20