The text below is selected, press Ctrl+C to copy to your clipboard. (⌘+C on Mac) No line numbers will be copied.
The Babysitter Killer Queen (2020)...

10th September 2020 01:21:09 PM | Views: 39
  1. Format                                   : Matroska
  2. Format version                           : Version 4
  3. File size                                : 3.87 GiB
  4. Duration                                 : 1 h 42 min
  5. Overall bit rate                         : 5 404 kb/s
  6. Movie name                               : The Babysitter Killer Queen (2020) 1080p WEB-DL x264 Dual Audio [Hindi DDP5.1 + English DA5.1] ESub 3.86GB [www.MoviezAddiction.space]
  7. Encoded date                             : UTC 2020-09-10 10:41:01
  8. Writing application                      : mkvmerge v48.0.0 ('Fortress Around Your Heart') 64-bit
  9. Writing library                          : libebml v1.4.0 + libmatroska v1.6.0
  10.  
  11. Video
  12. ID                                       : 1
  13. Format                                   : AVC
  14. Format/Info                              : Advanced Video Codec
  15. Format profile                           : [email protected]
  16. Format settings                          : CABAC / 5 Ref Frames
  17. Format settings, CABAC                   : Yes
  18. Format settings, Reference frames        : 5 frames
  19. Codec ID                                 : V_MPEG4/ISO/AVC
  20. Duration                                 : 1 h 42 min
  21. Bit rate                                 : 4 000 kb/s
  22. Width                                    : 1 920 pixels
  23. Height                                   : 800 pixels
  24. Display aspect ratio                     : 2.40:1
  25. Frame rate mode                          : Constant
  26. Frame rate                               : 24.000 FPS
  27. Color space                              : YUV
  28. Chroma subsampling                       : 4:2:0
  29. Bit depth                                : 8 bits
  30. Scan type                                : Progressive
  31. Bits/(Pixel*Frame)                       : 0.109
  32. Stream size                              : 2.86 GiB (74%)
  33. Title                                    : [www.MoviezAddiction.space]
  34. Writing library                          : x264 core 160 r3009 4c9b076
  35. Encoding settings                        : cabac=1 / ref=5 / deblock=1:0:0 / analyse=0x1:0x111 / me=hex / subme=8 / psy=1 / psy_rd=1.00:0.00 / mixed_ref=1 / me_range=16 / chroma_me=1 / trellis=2 / 8x8dct=0 / cqm=0 / deadzone=21,11 / fast_pskip=1 / chroma_qp_offset=-2 / threads=25 / lookahead_threads=4 / sliced_threads=0 / nr=0 / decimate=1 / interlaced=0 / bluray_compat=0 / constrained_intra=0 / bframes=3 / b_pyramid=2 / b_adapt=1 / b_bias=0 / direct=3 / weightb=1 / open_gop=0 / weightp=2 / keyint=250 / keyint_min=24 / scenecut=40 / intra_refresh=0 / rc_lookahead=50 / rc=2pass / mbtree=1 / bitrate=4000 / ratetol=1.0 / qcomp=0.60 / qpmin=0 / qpmax=69 / qpstep=4 / cplxblur=20.0 / qblur=0.5 / ip_ratio=1.40 / aq=1:1.00
  36. Default                                  : Yes
  37. Forced                                   : No
  38.  
  39. Audio #1
  40. ID                                       : 2
  41. Format                                   : E-AC-3 JOC
  42. Format/Info                              : Enhanced AC-3 with Joint Object Coding
  43. Commercial name                          : Dolby Digital Plus with Dolby Atmos
  44. Codec ID                                 : A_EAC3
  45. Duration                                 : 1 h 42 min
  46. Bit rate mode                            : Constant
  47. Bit rate                                 : 768 kb/s
  48. Channel(s)                               : 6 channels
  49. Channel layout                           : L R C LFE Ls Rs
  50. Sampling rate                            : 48.0 kHz
  51. Frame rate                               : 31.250 FPS (1536 SPF)
  52. Compression mode                         : Lossy
  53. Stream size                              : 563 MiB (14%)
  54. Title                                    : [www.MoviezAddiction.space] - English
  55. Language                                 : English
  56. Service kind                             : Complete Main
  57. Default                                  : No
  58. Forced                                   : No
  59. Complexity index                         : 16
  60. Number of dynamic objects                : 15
  61. Bed channel count                        : 1 channel
  62. Bed channel configuration                : LFE
  63.  
  64. Audio #2
  65. ID                                       : 3
  66. Format                                   : E-AC-3
  67. Format/Info                              : Enhanced AC-3
  68. Commercial name                          : Dolby Digital Plus
  69. Codec ID                                 : A_EAC3
  70. Duration                                 : 1 h 42 min
  71. Bit rate mode                            : Constant
  72. Bit rate                                 : 640 kb/s
  73. Channel(s)                               : 6 channels
  74. Channel layout                           : L R C LFE Ls Rs
  75. Sampling rate                            : 48.0 kHz
  76. Frame rate                               : 31.250 FPS (1536 SPF)
  77. Compression mode                         : Lossy
  78. Stream size                              : 469 MiB (12%)
  79. Title                                    : [www.MoviezAddiction.space] - Hindi
  80. Language                                 : Hindi
  81. Service kind                             : Complete Main
  82. Default                                  : Yes
  83. Forced                                   : Yes
  84.  
  85. Text
  86. ID                                       : 4
  87. Format                                   : UTF-8
  88. Codec ID                                 : S_TEXT/UTF8
  89. Codec ID/Info                            : UTF-8 Plain Text
  90. Duration                                 : 1 h 40 min
  91. Bit rate                                 : 83 b/s
  92. Count of elements                        : 1839
  93. Stream size                              : 60.9 KiB (0%)
  94. Title                                    : [www.MoviezAddiction.space] - English [SRT]
  95. Language                                 : English
  96. Default                                  : Yes
  97. Forced                                   : Yes