The text below is selected, press Ctrl+C to copy to your clipboard. (⌘+C on Mac) No line numbers will be copied.
The Thing (1982) ARROW REMASTERED...

6th November 2022 04:11:02 PM | Views: 23
  1. Format                                   : Matroska
  2. Format version                           : Version 4
  3. File size                                : 8.30 GiB
  4. Duration                                 : 1 h 48 min
  5. Overall bit rate mode                    : Variable
  6. Overall bit rate                         : 10.9 Mb/s
  7. Movie name                               : The Thing (1982) ARROW REMASTERED 1080p BluRay x264 Dual Audio [Hindi VCD DD2.0 + English DTS-X 7.1] ESub 8.29GB [MoviezAddiction.life]
  8. Encoded date                             : UTC 2022-11-06 06:12:14
  9. Writing application                      : mkvmerge v71.1.0 ('Fortitude') 64-bit
  10. Writing library                          : libebml v1.4.4 + libmatroska v1.7.1
  11.  
  12. Video
  13. ID                                       : 1
  14. Format                                   : AVC
  15. Format/Info                              : Advanced Video Codec
  16. Format profile                           : [email protected]
  17. Format settings                          : CABAC / 5 Ref Frames
  18. Format settings, CABAC                   : Yes
  19. Format settings, Reference frames        : 5 frames
  20. Codec ID                                 : V_MPEG4/ISO/AVC
  21. Duration                                 : 1 h 48 min
  22. Bit rate                                 : 4 000 kb/s
  23. Width                                    : 1 920 pixels
  24. Height                                   : 816 pixels
  25. Display aspect ratio                     : 2.35:1
  26. Frame rate mode                          : Variable
  27. Frame rate                               : 23.976 (24000/1001) FPS
  28. Color space                              : YUV
  29. Chroma subsampling                       : 4:2:0
  30. Bit depth                                : 8 bits
  31. Scan type                                : Progressive
  32. Bits/(Pixel*Frame)                       : 0.106
  33. Stream size                              : 3.03 GiB (37%)
  34. Default                                  : Yes
  35. Forced                                   : No
  36. Color range                              : Limited
  37. Color primaries                          : BT.709
  38. Transfer characteristics                 : BT.709
  39. Matrix coefficients                      : BT.709
  40.  
  41. Audio #1
  42. ID                                       : 2
  43. Format                                   : AC-3
  44. Format/Info                              : Audio Coding 3
  45. Commercial name                          : Dolby Digital
  46. Codec ID                                 : A_AC3
  47. Duration                                 : 1 h 48 min
  48. Bit rate mode                            : Constant
  49. Bit rate                                 : 224 kb/s
  50. Channel(s)                               : 2 channels
  51. Channel layout                           : L R
  52. Sampling rate                            : 48.0 kHz
  53. Frame rate                               : 31.250 FPS (1536 SPF)
  54. Compression mode                         : Lossy
  55. Stream size                              : 174 MiB (2%)
  56. Title                                    : Hindi
  57. Language                                 : Hindi
  58. Service kind                             : Complete Main
  59. Default                                  : Yes
  60. Forced                                   : No
  61.  
  62. Audio #2
  63. ID                                       : 3
  64. Format                                   : DTS XLL X
  65. Format/Info                              : Digital Theater Systems
  66. Commercial name                          : DTS-HD Master Audio
  67. Codec ID                                 : A_DTS
  68. Duration                                 : 1 h 48 min
  69. Bit rate mode                            : Variable
  70. Bit rate                                 : 6 697 kb/s
  71. Channel(s)                               : 8 channels
  72. Channel(s)_Original                      : Object Based
  73. ChannelLayout_Original                   : Object Based
  74. Sampling rate                            : 48.0 kHz
  75. Frame rate                               : 93.750 FPS (512 SPF)
  76. Bit depth                                : 24 bits
  77. Delay relative to video                  : -990 ms
  78. Stream size                              : 5.08 GiB (61%)
  79. Title                                    : English
  80. Language                                 : English
  81. Default                                  : No
  82. Forced                                   : No
  83.  
  84. Text
  85. ID                                       : 4
  86. Format                                   : PGS
  87. Codec ID                                 : S_HDMV/PGS
  88. Codec ID/Info                            : Picture based subtitle format used on BDs/HD-DVDs
  89. Duration                                 : 1 h 36 min
  90. Bit rate                                 : 19.1 kb/s
  91. Frame rate                               : 0.219 FPS
  92. Count of elements                        : 1266
  93. Stream size                              : 13.2 MiB (0%)
  94. Title                                    : English [PGS]
  95. Language                                 : English
  96. Default                                  : Yes
  97. Forced                                   : No
  98.  
  99. Menu
  100. 00:00:00.990                             : en:Chapter 01
  101. 00:02:07.908                             : en:Chapter 02
  102. 00:10:23.069                             : en:Chapter 03
  103. 00:15:48.728                             : en:Chapter 04
  104. 00:22:13.195                             : en:Chapter 05
  105. 00:27:00.482                             : en:Chapter 06
  106. 00:33:03.261                             : en:Chapter 07
  107. 00:37:21.645                             : en:Chapter 08
  108. 00:41:43.698                             : en:Chapter 09
  109. 00:46:30.943                             : en:Chapter 10
  110. 00:52:15.788                             : en:Chapter 11
  111. 00:57:35.482                             : en:Chapter 12
  112. 01:01:01.647                             : en:Chapter 13
  113. 01:06:15.377                             : en:Chapter 14
  114. 01:09:50.925                             : en:Chapter 15
  115. 01:14:22.613                             : en:Chapter 16
  116. 01:18:44.333                             : en:Chapter 17
  117. 01:27:59.429                             : en:Chapter 18
  118. 01:33:20.417                             : en:Chapter 19
  119. 01:37:48.268                             : en:Chapter 20
  120. 01:39:13.019                             : en:Chapter 21
  121. 01:42:08.694                             : en:Chapter 22
  122. 01:48:33.329                             : en:Chapter 23