The text below is selected, press Ctrl+C to copy to your clipboard. (⌘+C on Mac) No line numbers will be copied.
Crazy Stupid Love (2011) UNRATED...

16th September 2020 07:59:46 AM | Views: 23
  1. Format                                   : Matroska
  2. Format version                           : Version 4
  3. File size                                : 2.15 GiB
  4. Duration                                 : 1 h 58 min
  5. Overall bit rate                         : 2 605 kb/s
  6. Movie name                               : Crazy Stupid Love (2011) UNRATED 1080p BluRay x265 10bit HEVC Dual Audio [Hindi VCD DD2.0 + English BD5.1] ESub 2.14GB [www.MoviezAddiction.space]
  7. Encoded date                             : UTC 2020-09-16 03:56:15
  8. Writing application                      : mkvmerge v48.0.0 ('Fortress Around Your Heart') 64-bit
  9. Writing library                          : libebml v1.4.0 + libmatroska v1.6.0
  10.  
  11. Video
  12. ID                                       : 1
  13. Format                                   : HEVC
  14. Format/Info                              : High Efficiency Video Coding
  15. Format profile                           : Main [email protected]@Main
  16. Codec ID                                 : V_MPEGH/ISO/HEVC
  17. Duration                                 : 1 h 58 min
  18. Bit rate                                 : 1 701 kb/s
  19. Width                                    : 1 920 pixels
  20. Height                                   : 800 pixels
  21. Display aspect ratio                     : 2.40:1
  22. Frame rate mode                          : Constant
  23. Frame rate                               : 23.976 (24000/1001) FPS
  24. Color space                              : YUV
  25. Chroma subsampling                       : 4:2:0
  26. Bit depth                                : 10 bits
  27. Bits/(Pixel*Frame)                       : 0.046
  28. Stream size                              : 1.40 GiB (65%)
  29. Title                                    : [www.MoviezAddiction.space]
  30. Default                                  : Yes
  31. Forced                                   : No
  32.  
  33. Audio #1
  34. ID                                       : 2
  35. Format                                   : AC-3
  36. Format/Info                              : Audio Coding 3
  37. Commercial name                          : Dolby Digital
  38. Codec ID                                 : A_AC3
  39. Duration                                 : 1 h 58 min
  40. Bit rate mode                            : Constant
  41. Bit rate                                 : 640 kb/s
  42. Channel(s)                               : 6 channels
  43. Channel layout                           : L R C LFE Ls Rs
  44. Sampling rate                            : 48.0 kHz
  45. Frame rate                               : 31.250 FPS (1536 SPF)
  46. Compression mode                         : Lossy
  47. Stream size                              : 541 MiB (25%)
  48. Title                                    : [www.MoviezAddiction.space] - English
  49. Language                                 : English
  50. Service kind                             : Complete Main
  51. Default                                  : No
  52. Forced                                   : No
  53.  
  54. Audio #2
  55. ID                                       : 3
  56. Format                                   : AC-3
  57. Format/Info                              : Audio Coding 3
  58. Commercial name                          : Dolby Digital
  59. Codec ID                                 : A_AC3
  60. Duration                                 : 1 h 58 min
  61. Bit rate mode                            : Constant
  62. Bit rate                                 : 224 kb/s
  63. Channel(s)                               : 2 channels
  64. Channel layout                           : L R
  65. Sampling rate                            : 48.0 kHz
  66. Frame rate                               : 31.250 FPS (1536 SPF)
  67. Compression mode                         : Lossy
  68. Stream size                              : 189 MiB (9%)
  69. Title                                    : [www.MoviezAddiction.space] - Hindi
  70. Language                                 : Hindi
  71. Service kind                             : Complete Main
  72. Default                                  : Yes
  73. Forced                                   : Yes
  74.  
  75. Text
  76. ID                                       : 4
  77. Format                                   : PGS
  78. Codec ID                                 : S_HDMV/PGS
  79. Codec ID/Info                            : Picture based subtitle format used on BDs/HD-DVDs
  80. Duration                                 : 1 h 57 min
  81. Bit rate                                 : 38.6 kb/s
  82. Count of elements                        : 3598
  83. Stream size                              : 32.5 MiB (1%)
  84. Title                                    : [www.MoviezAddiction.space] - English [PGS]
  85. Language                                 : English
  86. Default                                  : Yes
  87. Forced                                   : Yes
  88.  
  89. Menu
  90. 00:00:00.000                             : en:00:00:00.000
  91. 00:08:25.714                             : en:00:08:25.714
  92. 00:20:56.422                             : en:00:20:56.422
  93. 00:28:40.552                             : en:00:28:40.552
  94. 00:38:32.560                             : en:00:38:32.560
  95. 00:51:33.674                             : en:00:51:33.674
  96. 01:02:41.007                             : en:01:02:41.007
  97. 01:11:00.548                             : en:01:11:00.548
  98. 01:21:12.117                             : en:01:21:12.117
  99. 01:28:07.199                             : en:01:28:07.199
  100. 01:40:51.963                             : en:01:40:51.963
  101. 01:48:00.808                             : en:01:48:00.808
  102. 01:52:20.525                             : en:01:52:20.525