The text below is selected, press Ctrl+C to copy to your clipboard. (⌘+C on Mac) No line numbers will be copied.
Lost Bullet (2020) REMASTERED DS4K...

13th November 2022 06:55:32 AM | Views: 24
  1. Format                                   : Matroska
  2. Format version                           : Version 4
  3. File size                                : 3.44 GiB
  4. Duration                                 : 1 h 33 min
  5. Overall bit rate                         : 5 244 kb/s
  6. Movie name                               : Lost Bullet (2020) REMASTERED DS4K 1080p NF WEB-DL x264 Dual Audio [Hindi DDP5.1 + English DDP5.1] ESub 3.43GB [MoviezAddiction.life]
  7. Encoded date                             : UTC 2022-11-12 12:05:50
  8. Writing application                      : mkvmerge v71.1.0 ('Fortitude') 64-bit
  9. Writing library                          : libebml v1.4.4 + libmatroska v1.7.1
  10.  
  11. Video
  12. ID                                       : 1
  13. Format                                   : AVC
  14. Format/Info                              : Advanced Video Codec
  15. Format profile                           : [email protected]
  16. Format settings                          : CABAC / 5 Ref Frames
  17. Format settings, CABAC                   : Yes
  18. Format settings, Reference frames        : 5 frames
  19. Codec ID                                 : V_MPEG4/ISO/AVC
  20. Duration                                 : 1 h 33 min
  21. Bit rate                                 : 4 000 kb/s
  22. Width                                    : 1 920 pixels
  23. Height                                   : 802 pixels
  24. Display aspect ratio                     : 2.40:1
  25. Frame rate mode                          : Constant
  26. Frame rate                               : 25.000 FPS
  27. Color space                              : YUV
  28. Chroma subsampling                       : 4:2:0
  29. Bit depth                                : 8 bits
  30. Scan type                                : Progressive
  31. Bits/(Pixel*Frame)                       : 0.104
  32. Stream size                              : 2.60 GiB (76%)
  33. Default                                  : Yes
  34. Forced                                   : No
  35. Color range                              : Limited
  36. Color primaries                          : BT.709
  37. Transfer characteristics                 : BT.709
  38. Matrix coefficients                      : BT.709
  39.  
  40. Audio #1
  41. ID                                       : 2
  42. Format                                   : E-AC-3
  43. Format/Info                              : Enhanced AC-3
  44. Commercial name                          : Dolby Digital Plus
  45. Codec ID                                 : A_EAC3
  46. Duration                                 : 1 h 33 min
  47. Bit rate mode                            : Constant
  48. Bit rate                                 : 640 kb/s
  49. Channel(s)                               : 6 channels
  50. Channel layout                           : L R C LFE Ls Rs
  51. Sampling rate                            : 48.0 kHz
  52. Frame rate                               : 31.250 FPS (1536 SPF)
  53. Compression mode                         : Lossy
  54. Stream size                              : 430 MiB (12%)
  55. Title                                    : Hindi
  56. Language                                 : Hindi
  57. Service kind                             : Complete Main
  58. Default                                  : Yes
  59. Forced                                   : No
  60.  
  61. Audio #2
  62. ID                                       : 3
  63. Format                                   : E-AC-3
  64. Format/Info                              : Enhanced AC-3
  65. Commercial name                          : Dolby Digital Plus
  66. Codec ID                                 : A_EAC3
  67. Duration                                 : 1 h 33 min
  68. Bit rate mode                            : Constant
  69. Bit rate                                 : 640 kb/s
  70. Channel(s)                               : 6 channels
  71. Channel layout                           : L R C LFE Ls Rs
  72. Sampling rate                            : 48.0 kHz
  73. Frame rate                               : 31.250 FPS (1536 SPF)
  74. Compression mode                         : Lossy
  75. Stream size                              : 426 MiB (12%)
  76. Title                                    : English
  77. Language                                 : English
  78. Service kind                             : Complete Main
  79. Default                                  : No
  80. Forced                                   : No
  81.  
  82. Text
  83. ID                                       : 4
  84. Format                                   : UTF-8
  85. Codec ID                                 : S_TEXT/UTF8
  86. Codec ID/Info                            : UTF-8 Plain Text
  87. Duration                                 : 7 min 16 s
  88. Bit rate                                 : 0 b/s
  89. Frame rate                               : 0.005 FPS
  90. Count of elements                        : 2
  91. Stream size                              : 31.0 Bytes (0%)
  92. Title                                    : English [SRT]
  93. Language                                 : English
  94. Default                                  : Yes
  95. Forced                                   : No