The text below is selected, press Ctrl+C to copy to your clipboard. (⌘+C on Mac) No line numbers will be copied.
Neighbors 2 Sorority Rising (2016)...

12th September 2020 03:24:09 PM | Views: 20
  1. Format                                   : Matroska
  2. Format version                           : Version 4
  3. File size                                : 965 MiB
  4. Duration                                 : 1 h 32 min
  5. Overall bit rate                         : 1 459 kb/s
  6. Movie name                               : Neighbors 2 Sorority Rising (2016) 720p Bluray x264 Dual Audio [ Hindi DD5.1 + English DD5.1 ] MSubs [www.MoviezAddiction.space]
  7. Encoded date                             : UTC 2020-09-12 12:51:59
  8. Writing application                      : mkvmerge v48.0.0 ('Fortress Around Your Heart') 64-bit
  9. Writing library                          : libebml v1.4.0 + libmatroska v1.6.0
  10.  
  11. Video
  12. ID                                       : 5
  13. Format                                   : AVC
  14. Format/Info                              : Advanced Video Codec
  15. Format profile                           : [email protected]
  16. Format settings                          : CABAC / 8 Ref Frames
  17. Format settings, CABAC                   : Yes
  18. Format settings, Reference frames        : 8 frames
  19. Codec ID                                 : V_MPEG4/ISO/AVC
  20. Duration                                 : 1 h 32 min
  21. Bit rate                                 : 1 054 kb/s
  22. Width                                    : 1 280 pixels
  23. Height                                   : 534 pixels
  24. Display aspect ratio                     : 2.40:1
  25. Frame rate mode                          : Constant
  26. Frame rate                               : 23.976 (24000/1001) FPS
  27. Color space                              : YUV
  28. Chroma subsampling                       : 4:2:0
  29. Bit depth                                : 8 bits
  30. Scan type                                : Progressive
  31. Bits/(Pixel*Frame)                       : 0.064
  32. Stream size                              : 697 MiB (72%)
  33. Title                                    : [www.MoviezAddiction.space]
  34. Writing library                          : x264 core 148 r2694 3b70645
  35. Encoding settings                        : cabac=1 / ref=8 / deblock=1:-1:-1 / analyse=0x3:0x133 / me=umh / subme=9 / psy=1 / psy_rd=1.00:0.15 / mixed_ref=1 / me_range=24 / chroma_me=1 / trellis=2 / 8x8dct=1 / cqm=0 / deadzone=21,11 / fast_pskip=1 / chroma_qp_offset=-3 / threads=12 / lookahead_threads=1 / sliced_threads=0 / nr=0 / decimate=1 / interlaced=0 / bluray_compat=0 / constrained_intra=0 / bframes=3 / b_pyramid=2 / b_adapt=2 / b_bias=0 / direct=3 / weightb=1 / open_gop=0 / weightp=2 / keyint=250 / keyint_min=23 / scenecut=40 / intra_refresh=0 / rc_lookahead=60 / rc=2pass / mbtree=1 / bitrate=1054 / ratetol=1.0 / qcomp=0.60 / qpmin=0 / qpmax=69 / qpstep=4 / cplxblur=20.0 / qblur=0.5 / vbv_maxrate=20000 / vbv_bufsize=17500 / nal_hrd=none / filler=0 / ip_ratio=1.40 / aq=3:0.70
  36. Language                                 : English
  37. Default                                  : Yes
  38. Forced                                   : No
  39.  
  40. Audio #1
  41. ID                                       : 3
  42. Format                                   : AAC LC
  43. Format/Info                              : Advanced Audio Codec Low Complexity
  44. Codec ID                                 : A_AAC-2
  45. Duration                                 : 1 h 32 min
  46. Bit rate                                 : 192 kb/s
  47. Channel(s)                               : 6 channels
  48. Channel layout                           : C L R Ls Rs LFE
  49. Sampling rate                            : 48.0 kHz
  50. Frame rate                               : 46.875 FPS (1024 SPF)
  51. Compression mode                         : Lossy
  52. Stream size                              : 125 MiB (13%)
  53. Title                                    : [www.MoviezAddiction.space]
  54. Language                                 : Hindi
  55. Default                                  : Yes
  56. Forced                                   : Yes
  57.  
  58. Audio #2
  59. ID                                       : 4
  60. Format                                   : AAC LC
  61. Format/Info                              : Advanced Audio Codec Low Complexity
  62. Codec ID                                 : A_AAC-2
  63. Duration                                 : 1 h 32 min
  64. Bit rate                                 : 192 kb/s
  65. Channel(s)                               : 6 channels
  66. Channel layout                           : C L R Ls Rs LFE
  67. Sampling rate                            : 48.0 kHz
  68. Frame rate                               : 46.875 FPS (1024 SPF)
  69. Compression mode                         : Lossy
  70. Stream size                              : 125 MiB (13%)
  71. Title                                    : [www.MoviezAddiction.space]
  72. Language                                 : English
  73. Default                                  : No
  74. Forced                                   : No
  75.  
  76. Text #1
  77. ID                                       : 1
  78. Format                                   : PGS
  79. Muxing mode                              : zlib
  80. Codec ID                                 : S_HDMV/PGS
  81. Codec ID/Info                            : Picture based subtitle format used on BDs/HD-DVDs
  82. Duration                                 : 1 h 30 min
  83. Bit rate                                 : 1 169 b/s
  84. Count of elements                        : 126
  85. Stream size                              : 772 KiB (0%)
  86. Title                                    : [www.MoviezAddiction.space]
  87. Language                                 : Hindi
  88. Default                                  : No
  89. Forced                                   : No
  90.  
  91. Text #2
  92. ID                                       : 2
  93. Format                                   : PGS
  94. Muxing mode                              : zlib
  95. Codec ID                                 : S_HDMV/PGS
  96. Codec ID/Info                            : Picture based subtitle format used on BDs/HD-DVDs
  97. Duration                                 : 1 h 25 min
  98. Bit rate                                 : 45.7 kb/s
  99. Count of elements                        : 4074
  100. Stream size                              : 27.9 MiB (3%)
  101. Title                                    : [www.MoviezAddiction.space]
  102. Language                                 : Hindi
  103. Default                                  : Yes
  104. Forced                                   : Yes
  105.  
  106. Text #3
  107. ID                                       : 6
  108. Format                                   : UTF-8
  109. Codec ID                                 : S_TEXT/UTF8
  110. Codec ID/Info                            : UTF-8 Plain Text
  111. Duration                                 : 1 h 25 min
  112. Bit rate                                 : 100 b/s
  113. Count of elements                        : 2121
  114. Stream size                              : 62.6 KiB (0%)
  115. Title                                    : [www.MoviezAddiction.space]
  116. Language                                 : English
  117. Default                                  : No
  118. Forced                                   : No
  119.  
  120. Menu
  121. 00:00:00.000                             : en:00:00:00.000
  122. 00:06:30.890                             : en:00:06:30.890
  123. 00:09:50.381                             : en:00:09:50.381
  124. 00:13:05.535                             : en:00:13:05.535
  125. 00:17:37.890                             : en:00:17:37.890
  126. 00:22:13.082                             : en:00:22:13.082
  127. 00:27:34.278                             : en:00:27:34.278
  128. 00:31:54.454                             : en:00:31:54.454
  129. 00:38:36.022                             : en:00:38:36.022
  130. 00:44:43.222                             : en:00:44:43.222
  131. 00:50:42.039                             : en:00:50:42.039
  132. 00:54:32.811                             : en:00:54:32.811
  133. 01:00:54.609                             : en:01:00:54.609
  134. 01:04:14.684                             : en:01:04:14.684
  135. 01:08:26.644                             : en:01:08:26.644
  136. 01:12:54.370                             : en:01:12:54.370
  137. 01:16:34.423                             : en:01:16:34.423
  138. 01:20:45.215                             : en:01:20:45.215
  139. 01:23:18.994                             : en:01:23:18.994
  140. 01:26:03.700                             : en:01:26:03.700