The text below is selected, press Ctrl+C to copy to your clipboard. (⌘+C on Mac) No line numbers will be copied.
Mirage (2018) 1080p BluRay x265...

17th January 2023 06:03:57 AM | Views: 15
  1. Format                                   : Matroska
  2. Format version                           : Version 4
  3. File size                                : 2.13 GiB
  4. Duration                                 : 2 h 8 min
  5. Overall bit rate                         : 2 368 kb/s
  6. Movie name                               : Mirage (2018) 1080p BluRay x265 10bit HEVC Hindi DDP5.1 ESub 2.13GB [MoviezAddiction]
  7. Encoded date                             : UTC 2023-01-17 05:00:12
  8. Writing application                      : mkvmerge v72.0.0 ('Minuano (Six-eight)') 64-bit
  9. Writing library                          : libebml v1.4.4 + libmatroska v1.7.1
  10.  
  11. Video
  12. ID                                       : 1
  13. Format                                   : HEVC
  14. Format/Info                              : High Efficiency Video Coding
  15. Format profile                           : Main [email protected]@Main
  16. Codec ID                                 : V_MPEGH/ISO/HEVC
  17. Duration                                 : 2 h 8 min
  18. Bit rate                                 : 1 701 kb/s
  19. Width                                    : 1 920 pixels
  20. Height                                   : 804 pixels
  21. Display aspect ratio                     : 2.40:1
  22. Frame rate mode                          : Variable
  23. Frame rate                               : 23.976 (24000/1001) FPS
  24. Color space                              : YUV
  25. Chroma subsampling                       : 4:2:0
  26. Bit depth                                : 10 bits
  27. Bits/(Pixel*Frame)                       : 0.046
  28. Stream size                              : 1.53 GiB (72%)
  29. Default                                  : Yes
  30. Forced                                   : No
  31. Color range                              : Limited
  32. Color primaries                          : BT.709
  33. Transfer characteristics                 : BT.709
  34. Matrix coefficients                      : BT.709
  35.  
  36. Audio
  37. ID                                       : 2
  38. Format                                   : E-AC-3
  39. Format/Info                              : Enhanced AC-3
  40. Commercial name                          : Dolby Digital Plus
  41. Codec ID                                 : A_EAC3
  42. Duration                                 : 2 h 8 min
  43. Bit rate mode                            : Constant
  44. Bit rate                                 : 640 kb/s
  45. Channel(s)                               : 6 channels
  46. Channel layout                           : L R C LFE Ls Rs
  47. Sampling rate                            : 48.0 kHz
  48. Frame rate                               : 31.250 FPS (1536 SPF)
  49. Compression mode                         : Lossy
  50. Stream size                              : 590 MiB (27%)
  51. Title                                    : Hindi
  52. Language                                 : Hindi
  53. Service kind                             : Complete Main
  54. Default                                  : Yes
  55. Forced                                   : No
  56.  
  57. Text
  58. ID                                       : 3
  59. Format                                   : PGS
  60. Codec ID                                 : S_HDMV/PGS
  61. Codec ID/Info                            : Picture based subtitle format used on BDs/HD-DVDs
  62. Duration                                 : 2 h 7 min
  63. Bit rate                                 : 25.0 kb/s
  64. Frame rate                               : 0.365 FPS
  65. Count of elements                        : 2796
  66. Stream size                              : 22.9 MiB (1%)
  67. Title                                    : English [PGS]
  68. Language                                 : English
  69. Default                                  : Yes
  70. Forced                                   : No
  71.  
  72. Menu
  73. 00:00:00.000                             : Chapter 01
  74. 00:08:02.565                             : Chapter 02
  75. 00:16:47.340                             : Chapter 03
  76. 00:24:41.313                             : Chapter 04
  77. 00:32:52.888                             : Chapter 05
  78. 00:38:51.704                             : Chapter 06
  79. 00:48:31.117                             : Chapter 07
  80. 00:56:32.014                             : Chapter 08
  81. 01:03:06.324                             : Chapter 09
  82. 01:10:32.061                             : Chapter 10
  83. 01:17:45.744                             : Chapter 11
  84. 01:26:27.682                             : Chapter 12
  85. 01:35:39.692                             : Chapter 13
  86. 01:43:52.643                             : Chapter 14
  87. 01:52:36.541                             : Chapter 15
  88. 02:02:20.375                             : Chapter 16