The text below is selected, press Ctrl+C to copy to your clipboard. (⌘+C on Mac) No line numbers will be copied.
The Babysitter (2017) 720p

16th September 2020 09:13:19 AM | Views: 27
  1. Format                                   : Matroska
  2. Format version                           : Version 4
  3. File size                                : 940 MiB
  4. Duration                                 : 1 h 25 min
  5. Overall bit rate                         : 1 536 kb/s
  6. Movie name                               : The Babysitter (2017) 720p BluRay x264 Dual Audio [Hindi DD5.1 + English BD5.1] ESub 939MB [www.MoviezAddiction.space]
  7. Encoded date                             : UTC 2020-09-13 08:01:16
  8. Writing application                      : mkvmerge v48.0.0 ('Fortress Around Your Heart') 64-bit
  9. Writing library                          : libebml v1.4.0 + libmatroska v1.6.0
  10.  
  11. Video
  12. ID                                       : 1
  13. Format                                   : AVC
  14. Format/Info                              : Advanced Video Codec
  15. Format profile                           : [email protected]
  16. Format settings                          : CABAC / 4 Ref Frames
  17. Format settings, CABAC                   : Yes
  18. Format settings, Reference frames        : 4 frames
  19. Codec ID                                 : V_MPEG4/ISO/AVC
  20. Duration                                 : 1 h 25 min
  21. Bit rate                                 : 1 099 kb/s
  22. Width                                    : 1 280 pixels
  23. Height                                   : 536 pixels
  24. Display aspect ratio                     : 2.40:1
  25. Frame rate mode                          : Constant
  26. Frame rate                               : 23.976 (24000/1001) FPS
  27. Color space                              : YUV
  28. Chroma subsampling                       : 4:2:0
  29. Bit depth                                : 8 bits
  30. Scan type                                : Progressive
  31. Bits/(Pixel*Frame)                       : 0.067
  32. Stream size                              : 670 MiB (71%)
  33. Title                                    : [www.MoviezAddiction.space]
  34. Writing library                          : x264 core 160 r3009 4c9b076
  35. Encoding settings                        : cabac=1 / ref=3 / deblock=1:0:0 / analyse=0x3:0x113 / me=hex / subme=7 / psy=1 / psy_rd=1.00:0.00 / mixed_ref=1 / me_range=16 / chroma_me=1 / trellis=1 / 8x8dct=1 / cqm=0 / deadzone=21,11 / fast_pskip=1 / chroma_qp_offset=-2 / threads=17 / lookahead_threads=2 / sliced_threads=0 / nr=0 / decimate=1 / interlaced=0 / bluray_compat=0 / constrained_intra=0 / bframes=3 / b_pyramid=2 / b_adapt=1 / b_bias=0 / direct=1 / weightb=1 / open_gop=0 / weightp=2 / keyint=250 / keyint_min=23 / scenecut=40 / intra_refresh=0 / rc_lookahead=40 / rc=2pass / mbtree=1 / bitrate=1099 / ratetol=1.0 / qcomp=0.60 / qpmin=0 / qpmax=69 / qpstep=4 / cplxblur=20.0 / qblur=0.5 / ip_ratio=1.40 / aq=1:1.00
  36. Default                                  : Yes
  37. Forced                                   : No
  38. Color range                              : Limited
  39. Color primaries                          : BT.709
  40. Transfer characteristics                 : BT.709
  41. Matrix coefficients                      : BT.709
  42.  
  43. Audio #1
  44. ID                                       : 2
  45. Format                                   : AAC LC SBR
  46. Format/Info                              : Advanced Audio Codec Low Complexity with Spectral Band Replication
  47. Commercial name                          : HE-AAC
  48. Format settings                          : Explicit
  49. Codec ID                                 : A_AAC-2
  50. Duration                                 : 1 h 25 min
  51. Bit rate                                 : 192 kb/s
  52. Channel(s)                               : 6 channels
  53. Channel layout                           : C L R Ls Rs LFE
  54. Sampling rate                            : 48.0 kHz
  55. Frame rate                               : 23.438 FPS (2048 SPF)
  56. Compression mode                         : Lossy
  57. Stream size                              : 116 MiB (12%)
  58. Title                                    : [www.MoviezAddiction.space] - English
  59. Language                                 : English
  60. Default                                  : No
  61. Forced                                   : No
  62.  
  63. Audio #2
  64. ID                                       : 3
  65. Format                                   : AAC LC SBR
  66. Format/Info                              : Advanced Audio Codec Low Complexity with Spectral Band Replication
  67. Commercial name                          : HE-AAC
  68. Format settings                          : Explicit
  69. Codec ID                                 : A_AAC-2
  70. Duration                                 : 1 h 25 min
  71. Bit rate                                 : 192 kb/s
  72. Channel(s)                               : 6 channels
  73. Channel layout                           : C L R Ls Rs LFE
  74. Sampling rate                            : 48.0 kHz
  75. Frame rate                               : 23.438 FPS (2048 SPF)
  76. Compression mode                         : Lossy
  77. Stream size                              : 117 MiB (12%)
  78. Title                                    : [www.MoviezAddiction.space] - Hindi
  79. Language                                 : Hindi
  80. Default                                  : Yes
  81. Forced                                   : Yes
  82.  
  83. Text
  84. ID                                       : 4
  85. Format                                   : PGS
  86. Codec ID                                 : S_HDMV/PGS
  87. Codec ID/Info                            : Picture based subtitle format used on BDs/HD-DVDs
  88. Duration                                 : 1 h 21 min
  89. Bit rate                                 : 62.0 kb/s
  90. Count of elements                        : 2611
  91. Stream size                              : 35.9 MiB (4%)
  92. Title                                    : [www.MoviezAddiction.space] - English [PGS]
  93. Language                                 : English
  94. Default                                  : Yes
  95. Forced                                   : Yes
  96.  
  97. Menu
  98. 00:00:00.000                             : en:Chapter 01
  99. 00:10:39.222                             : en:Chapter 02
  100. 00:21:19.945                             : en:Chapter 03
  101. 00:31:58.083                             : en:Chapter 04
  102. 00:42:38.014                             : en:Chapter 05
  103. 00:53:16.276                             : en:Chapter 06
  104. 01:03:57.208                             : en:Chapter 07
  105. 01:14:36.973                             : en:Chapter 08