The text below is selected, press Ctrl+C to copy to your clipboard. (⌘+C on Mac) No line numbers will be copied.
Unlock (2020) 720p

27th June 2020 07:02:44 PM | Views: 41
  1. General
  2. Unique ID                                : 90411896239523611282228762046397627117 (0x4404B2A4F6D1EB8D7077E5E9C0A73AED)
  3. Complete name                            : S:\Unlock Working\Unlock - The Haunted App (2020) 720p WEB-DL x264 Hindi DD2.0 - [Www.MoviezAddiction.Site].mkv
  4. Format                                   : Matroska
  5. Format version                           : Version 4
  6. File size                                : 542 MiB
  7. Duration                                 : 58 min 43 s
  8. Overall bit rate                         : 1 290 kb/s
  9. Movie name                               : Unlock - The Haunted App (2020) 720p WEB-DL x264 Hindi DD2.0 - [Www.MoviezAddiction.Site]
  10. Encoded date                             : UTC 2020-06-27 16:37:15
  11. Writing application                      : mkvmerge v47.0.0 ('Black Flag') 64-bit
  12. Writing library                          : libebml v1.3.10 + libmatroska v1.5.2
  13.  
  14. Video
  15. ID                                       : 1
  16. Format                                   : AVC
  17. Format/Info                              : Advanced Video Codec
  18. Format profile                           : [email protected]
  19. Format settings                          : CABAC / 4 Ref Frames
  20. Format settings, CABAC                   : Yes
  21. Format settings, Reference frames        : 4 frames
  22. Codec ID                                 : V_MPEG4/ISO/AVC
  23. Duration                                 : 58 min 43 s
  24. Bit rate                                 : 1 099 kb/s
  25. Width                                    : 1 280 pixels
  26. Height                                   : 674 pixels
  27. Display aspect ratio                     : 1.899
  28. Frame rate mode                          : Constant
  29. Frame rate                               : 25.000 FPS
  30. Color space                              : YUV
  31. Chroma subsampling                       : 4:2:0
  32. Bit depth                                : 8 bits
  33. Scan type                                : Progressive
  34. Bits/(Pixel*Frame)                       : 0.051
  35. Stream size                              : 461 MiB (85%)
  36. Title                                    : [Www.MoviezAddiction.Site]
  37. Writing library                          : x264 core 155 r2893 b00bcaf
  38. Encoding settings                        : cabac=1 / ref=3 / deblock=1:0:0 / analyse=0x1:0x111 / me=hex / subme=7 / psy=1 / psy_rd=1.00:0.00 / mixed_ref=1 / me_range=16 / chroma_me=1 / trellis=1 / 8x8dct=0 / cqm=0 / deadzone=21,11 / fast_pskip=1 / chroma_qp_offset=-2 / threads=12 / lookahead_threads=2 / sliced_threads=0 / nr=0 / decimate=1 / interlaced=0 / bluray_compat=0 / constrained_intra=0 / bframes=3 / b_pyramid=2 / b_adapt=1 / b_bias=0 / direct=1 / weightb=1 / open_gop=0 / weightp=2 / keyint=250 / keyint_min=25 / scenecut=40 / intra_refresh=0 / rc_lookahead=40 / rc=2pass / mbtree=1 / bitrate=1099 / ratetol=1.0 / qcomp=0.60 / qpmin=0 / qpmax=69 / qpstep=4 / cplxblur=20.0 / qblur=0.5 / vbv_maxrate=14000 / vbv_bufsize=14000 / nal_hrd=none / filler=0 / ip_ratio=1.40 / aq=1:1.00
  39. Default                                  : Yes
  40. Forced                                   : No
  41. Color range                              : Limited
  42. Color primaries                          : BT.709
  43. Transfer characteristics                 : BT.709
  44. Matrix coefficients                      : BT.709
  45.  
  46. Audio
  47. ID                                       : 2
  48. Format                                   : AAC LC
  49. Format/Info                              : Advanced Audio Codec Low Complexity
  50. Codec ID                                 : A_AAC-2
  51. Duration                                 : 58 min 43 s
  52. Bit rate                                 : 192 kb/s
  53. Channel(s)                               : 2 channels
  54. Channel layout                           : L R
  55. Sampling rate                            : 48.0 kHz
  56. Frame rate                               : 46.875 FPS (1024 SPF)
  57. Compression mode                         : Lossy
  58. Delay relative to video                  : 33 ms
  59. Stream size                              : 79.5 MiB (15%)
  60. Title                                    : [Www.MoviezAddiction.Site]
  61. Language                                 : Hindi
  62. Default                                  : Yes
  63. Forced                                   : No