The text below is selected, press Ctrl+C to copy to your clipboard. (⌘+C on Mac) No line numbers will be copied.
Antim: The Final Truth (2021)

27th November 2021 08:50:15 AM | Views: 102
  1. Format                                   : Matroska
  2. Format version                           : Version 4
  3. File size                                : 2.06 GiB
  4. Duration                                 : 2 h 18 min
  5. Overall bit rate mode                    : Variable
  6. Overall bit rate                         : 2 135 kb/s
  7. Movie name                               : Antim: The Final Truth (2021) 1080p Pre DVD x264 Hindi DD2.0 2.05GB [www.MoviezAddiction.cc]
  8. Encoded date                             : UTC 2021-11-27 07:44:50
  9. Writing application                      : mkvmerge v47.0.0 ('Black Flag') 64-bit
  10. Writing library                          : libebml v1.3.10 + libmatroska v1.5.2
  11.  
  12. Video
  13. ID                                       : 1
  14. Format                                   : AVC
  15. Format/Info                              : Advanced Video Codec
  16. Format profile                           : [email protected]
  17. Format settings                          : CABAC / 5 Ref Frames
  18. Format settings, CABAC                   : Yes
  19. Format settings, Reference frames        : 5 frames
  20. Codec ID                                 : V_MPEG4/ISO/AVC
  21. Duration                                 : 2 h 18 min
  22. Bit rate mode                            : Variable
  23. Bit rate                                 : 2 000 kb/s
  24. Maximum bit rate                         : 30.0 Mb/s
  25. Width                                    : 1 920 pixels
  26. Height                                   : 772 pixels
  27. Display aspect ratio                     : 2.487
  28. Frame rate mode                          : Constant
  29. Frame rate                               : 23.976 (24000/1001) FPS
  30. Standard                                 : Component
  31. Color space                              : YUV
  32. Chroma subsampling                       : 4:2:0
  33. Bit depth                                : 8 bits
  34. Scan type                                : Progressive
  35. Bits/(Pixel*Frame)                       : 0.056
  36. Stream size                              : 1.94 GiB (94%)
  37. Title                                    : [www.MoviezAddiction.cc]
  38. Default                                  : Yes
  39. Forced                                   : No
  40. Color range                              : Limited
  41. Color primaries                          : BT.709
  42. Transfer characteristics                 : BT.709
  43. Matrix coefficients                      : BT.709
  44.  
  45. Audio
  46. ID                                       : 2
  47. Format                                   : AAC LC
  48. Format/Info                              : Advanced Audio Codec Low Complexity
  49. Codec ID                                 : A_AAC-2
  50. Duration                                 : 2 h 18 min
  51. Bit rate                                 : 125 kb/s
  52. Channel(s)                               : 2 channels
  53. Channel layout                           : L R
  54. Sampling rate                            : 48.0 kHz
  55. Frame rate                               : 46.875 FPS (1024 SPF)
  56. Compression mode                         : Lossy
  57. Stream size                              : 124 MiB (6%)
  58. Title                                    : [www.MoviezAddiction.cc] - Hindi
  59. Language                                 : Hindi
  60. Default                                  : Yes
  61. Forced                                   : No