The text below is selected, press Ctrl+C to copy to your clipboard. (⌘+C on Mac) No line numbers will be copied.
Vengeance (2022) 1080p BluRay x265...

14th November 2022 07:00:43 AM | Views: 14
  1. Format                                   : Matroska
  2. Format version                           : Version 4
  3. File size                                : 2.94 GiB
  4. Duration                                 : 1 h 48 min
  5. Overall bit rate                         : 3 890 kb/s
  6. Movie name                               : Vengeance (2022) 1080p BluRay x265 10bit HEVC Dual Audio [Hindi DDP5.1 + English DTS 5.1] ESub 2.94GB [MoviezAddiction.life]
  7. Encoded date                             : UTC 2022-11-13 23:41:47
  8. Writing application                      : mkvmerge v71.1.0 ('Fortitude') 64-bit
  9. Writing library                          : libebml v1.4.4 + libmatroska v1.7.1
  10.  
  11. Video
  12. ID                                       : 1
  13. Format                                   : HEVC
  14. Format/Info                              : High Efficiency Video Coding
  15. Format profile                           : Main [email protected]@Main
  16. Codec ID                                 : V_MPEGH/ISO/HEVC
  17. Duration                                 : 1 h 47 min
  18. Bit rate                                 : 1 699 kb/s
  19. Width                                    : 1 920 pixels
  20. Height                                   : 804 pixels
  21. Display aspect ratio                     : 2.40:1
  22. Frame rate mode                          : Variable
  23. Frame rate                               : 23.976 FPS
  24. Color space                              : YUV
  25. Chroma subsampling                       : 4:2:0
  26. Bit depth                                : 10 bits
  27. Bits/(Pixel*Frame)                       : 0.046
  28. Stream size                              : 1.28 GiB (43%)
  29. Default                                  : Yes
  30. Forced                                   : No
  31.  
  32. Audio #1
  33. ID                                       : 2
  34. Format                                   : E-AC-3
  35. Format/Info                              : Enhanced AC-3
  36. Commercial name                          : Dolby Digital Plus
  37. Codec ID                                 : A_EAC3
  38. Duration                                 : 1 h 48 min
  39. Bit rate mode                            : Constant
  40. Bit rate                                 : 640 kb/s
  41. Channel(s)                               : 6 channels
  42. Channel layout                           : L R C LFE Ls Rs
  43. Sampling rate                            : 48.0 kHz
  44. Frame rate                               : 31.250 FPS (1536 SPF)
  45. Compression mode                         : Lossy
  46. Delay relative to video                  : -24 s 357 ms
  47. Stream size                              : 495 MiB (16%)
  48. Title                                    : Hindi
  49. Language                                 : Hindi
  50. Service kind                             : Complete Main
  51. Default                                  : Yes
  52. Forced                                   : No
  53.  
  54. Audio #2
  55. ID                                       : 3
  56. Format                                   : DTS
  57. Format/Info                              : Digital Theater Systems
  58. Codec ID                                 : A_DTS
  59. Duration                                 : 1 h 47 min
  60. Bit rate mode                            : Constant
  61. Bit rate                                 : 1 509 kb/s
  62. Channel(s)                               : 6 channels
  63. Channel layout                           : C L R Ls Rs LFE
  64. Sampling rate                            : 48.0 kHz
  65. Frame rate                               : 93.750 FPS (512 SPF)
  66. Bit depth                                : 24 bits
  67. Compression mode                         : Lossy
  68. Stream size                              : 1.13 GiB (39%)
  69. Title                                    : English
  70. Language                                 : English
  71. Default                                  : No
  72. Forced                                   : No
  73.  
  74. Text
  75. ID                                       : 4
  76. Format                                   : PGS
  77. Codec ID                                 : S_HDMV/PGS
  78. Codec ID/Info                            : Picture based subtitle format used on BDs/HD-DVDs
  79. Duration                                 : 1 h 41 min
  80. Bit rate                                 : 59.7 kb/s
  81. Frame rate                               : 0.705 FPS
  82. Count of elements                        : 4290
  83. Stream size                              : 43.3 MiB (1%)
  84. Title                                    : English [PGS]
  85. Language                                 : English
  86. Default                                  : Yes
  87. Forced                                   : No
  88.  
  89. Menu
  90. 00:00:24.357                             : en:Chapter 01
  91. 00:05:38.754                             : en:Chapter 02
  92. 00:11:44.286                             : en:Chapter 03
  93. 00:14:48.929                             : en:Chapter 04
  94. 00:22:38.523                             : en:Chapter 05
  95. 00:32:06.257                             : en:Chapter 06
  96. 00:37:08.517                             : en:Chapter 07
  97. 00:41:26.650                             : en:Chapter 08
  98. 00:48:14.557                             : en:Chapter 09
  99. 00:51:00.807                             : en:Chapter 10
  100. 00:55:34.413                             : en:Chapter 11
  101. 01:01:46.869                             : en:Chapter 12
  102. 01:03:39.815                             : en:Chapter 13
  103. 01:08:22.347                             : en:Chapter 14
  104. 01:12:03.985                             : en:Chapter 15
  105. 01:20:43.963                             : en:Chapter 16
  106. 01:26:54.083                             : en:Chapter 17
  107. 01:30:49.818                             : en:Chapter 18
  108. 01:40:23.058                             : en:Chapter 19
  109. 01:42:28.016                             : en:Chapter 20