The text below is selected, press Ctrl+C to copy to your clipboard. (⌘+C on Mac) No line numbers will be copied.
Snowpiercer 720p

26th June 2020 02:55:25 PM | Views: 96
  1. Format                                   : Matroska
  2. Format version                           : Version 4
  3. File size                                : 513 MiB
  4. Duration                                 : 52 min 50 s
  5. Overall bit rate                         : 1 356 kb/s
  6. Movie name                               : Snowpiercer (2020) S01E01 [ First the Weather Changed ] 720p WEB-DL x264 Dual Audio [ Hindi DD5.1 + English DD5.1 ]┬áMSubs [Www.MoviezAddiction.site]
  7. Encoded date                             : UTC 2020-06-26 12:36:54
  8. Writing application                      : mkvmerge v47.0.0 ('Black Flag') 64-bit
  9. Writing library                          : libebml v1.3.10 + libmatroska v1.5.2
  10.  
  11. Video
  12. ID                                       : 5
  13. Format                                   : AVC
  14. Format/Info                              : Advanced Video Codec
  15. Format profile                           : [email protected]
  16. Format settings                          : CABAC / 5 Ref Frames
  17. Format settings, CABAC                   : Yes
  18. Format settings, Reference frames        : 5 frames
  19. Codec ID                                 : V_MPEG4/ISO/AVC
  20. Duration                                 : 52 min 43 s
  21. Bit rate                                 : 973 kb/s
  22. Width                                    : 1 280 pixels
  23. Height                                   : 720 pixels
  24. Display aspect ratio                     : 16:9
  25. Frame rate mode                          : Constant
  26. Frame rate                               : 23.976 (24000/1001) FPS
  27. Color space                              : YUV
  28. Chroma subsampling                       : 4:2:0
  29. Bit depth                                : 8 bits
  30. Scan type                                : Progressive
  31. Bits/(Pixel*Frame)                       : 0.044
  32. Stream size                              : 367 MiB (72%)
  33. Title                                    : [Www.MoviezAddiction.site]
  34. Writing library                          : x264 core 155 r2901 7d0ff22
  35. Encoding settings                        : cabac=1 / ref=5 / deblock=1:-2:-2 / analyse=0x3:0x133 / me=umh / subme=9 / psy=1 / psy_rd=1.00:0.15 / mixed_ref=1 / me_range=24 / chroma_me=1 / trellis=2 / 8x8dct=1 / cqm=0 / deadzone=21,11 / fast_pskip=1 / chroma_qp_offset=-3 / threads=18 / lookahead_threads=1 / sliced_threads=0 / nr=0 / decimate=1 / interlaced=0 / bluray_compat=0 / constrained_intra=0 / bframes=3 / b_pyramid=2 / b_adapt=2 / b_bias=0 / direct=3 / weightb=1 / open_gop=0 / weightp=2 / keyint=250 / keyint_min=23 / scenecut=40 / intra_refresh=0 / rc_lookahead=60 / rc=2pass / mbtree=1 / bitrate=973 / ratetol=1.0 / qcomp=0.60 / qpmin=0 / qpmax=69 / qpstep=4 / cplxblur=20.0 / qblur=0.5 / vbv_maxrate=9500 / vbv_bufsize=6000 / nal_hrd=none / filler=0 / ip_ratio=1.40 / aq=3:0.80
  36. Default                                  : Yes
  37. Forced                                   : No
  38.  
  39. Audio #1
  40. ID                                       : 1
  41. Format                                   : AAC LC SBR
  42. Format/Info                              : Advanced Audio Codec Low Complexity with Spectral Band Replication
  43. Commercial name                          : HE-AAC
  44. Format settings                          : Explicit
  45. Codec ID                                 : A_AAC-2
  46. Duration                                 : 52 min 43 s
  47. Bit rate                                 : 192 kb/s
  48. Channel(s)                               : 6 channels
  49. Channel layout                           : C L R Ls Rs LFE
  50. Sampling rate                            : 48.0 kHz
  51. Frame rate                               : 23.438 FPS (2048 SPF)
  52. Compression mode                         : Lossy
  53. Delay relative to video                  : 31 ms
  54. Stream size                              : 72.9 MiB (14%)
  55. Title                                    : [Www.MoviezAddiction.site]
  56. Language                                 : English
  57. Default                                  : No
  58. Forced                                   : No
  59.  
  60. Audio #2
  61. ID                                       : 6
  62. Format                                   : AAC LC
  63. Format/Info                              : Advanced Audio Codec Low Complexity
  64. Codec ID                                 : A_AAC-2
  65. Duration                                 : 52 min 50 s
  66. Bit rate                                 : 192 kb/s
  67. Channel(s)                               : 6 channels
  68. Channel layout                           : C L R Ls Rs LFE
  69. Sampling rate                            : 48.0 kHz
  70. Frame rate                               : 46.875 FPS (1024 SPF)
  71. Compression mode                         : Lossy
  72. Stream size                              : 71.6 MiB (14%)
  73. Title                                    : [Www.MoviezAddiction.site]
  74. Language                                 : Hindi
  75. Default                                  : Yes
  76. Forced                                   : Yes
  77.  
  78. Text #1
  79. ID                                       : 2
  80. Format                                   : UTF-8
  81. Codec ID                                 : S_TEXT/UTF8
  82. Codec ID/Info                            : UTF-8 Plain Text
  83. Duration                                 : 50 min 45 s
  84. Bit rate                                 : 58 b/s
  85. Count of elements                        : 621
  86. Stream size                              : 21.8 KiB (0%)
  87. Title                                    : [Www.MoviezAddiction.site]
  88. Language                                 : English
  89. Default                                  : No
  90. Forced                                   : No
  91.  
  92. Text #2
  93. ID                                       : 3
  94. Format                                   : UTF-8
  95. Codec ID                                 : S_TEXT/UTF8
  96. Codec ID/Info                            : UTF-8 Plain Text
  97. Duration                                 : 50 min 50 s
  98. Bit rate                                 : 68 b/s
  99. Count of elements                        : 732
  100. Stream size                              : 25.4 KiB (0%)
  101. Title                                    : [Www.MoviezAddiction.site]
  102. Language                                 : English
  103. Default                                  : No
  104. Forced                                   : No
  105.  
  106. Text #3
  107. ID                                       : 4
  108. Format                                   : UTF-8
  109. Codec ID                                 : S_TEXT/UTF8
  110. Codec ID/Info                            : UTF-8 Plain Text
  111. Duration                                 : 51 min 22 s
  112. Bit rate                                 : 139 b/s
  113. Count of elements                        : 620
  114. Stream size                              : 52.4 KiB (0%)
  115. Title                                    : [Www.MoviezAddiction.site]
  116. Language                                 : Hindi
  117. Default                                  : Yes
  118. Forced                                   : Yes