The text below is selected, press Ctrl+C to copy to your clipboard. (⌘+C on Mac) No line numbers will be copied.
The Kissing Booth (2018) 1080p

27th June 2020 09:46:16 AM | Views: 11
  1. Format                                   : Matroska
  2. Format version                           : Version 4
  3. File size                                : 6.85 GiB
  4. Duration                                 : 1 h 45 min
  5. Overall bit rate                         : 9 265 kb/s
  6. Movie name                               : The Kissing Booth (2018) 1080p WEB-DL x264 Dual Audio [Hindi DD5.1 + English DD5.1] ESub 6.84GB [Www.MoviezAddiction.site]
  7. Encoded date                             : UTC 2020-06-27 03:43:08
  8. Writing application                      : mkvmerge v47.0.0 ('Black Flag') 64-bit
  9. Writing library                          : libebml v1.3.10 + libmatroska v1.5.2
  10.  
  11. Video
  12. ID                                       : 1
  13. Format                                   : AVC
  14. Format/Info                              : Advanced Video Codec
  15. Format profile                           : [email protected]
  16. Format settings                          : CABAC / 4 Ref Frames
  17. Format settings, CABAC                   : Yes
  18. Format settings, Reference frames        : 4 frames
  19. Codec ID                                 : V_MPEG4/ISO/AVC
  20. Duration                                 : 1 h 45 min
  21. Bit rate                                 : 8 302 kb/s
  22. Width                                    : 1 920 pixels
  23. Height                                   : 880 pixels
  24. Display aspect ratio                     : 2.2:1
  25. Frame rate mode                          : Constant
  26. Frame rate                               : 23.976 (24000/1001) FPS
  27. Color space                              : YUV
  28. Chroma subsampling                       : 4:2:0
  29. Bit depth                                : 8 bits
  30. Scan type                                : Progressive
  31. Bits/(Pixel*Frame)                       : 0.205
  32. Stream size                              : 6.09 GiB (89%)
  33. Title                                    : [Www.MoviezAddiction.site]
  34. Writing library                          : x264 core 152 r2851kMod ba24899
  35. Encoding settings                        : cabac=1 / ref=4 / deblock=1:-3:-3 / analyse=0x3:0x133 / me=umh / subme=10 / psy=1 / fade_compensate=0.00 / psy_rd=1.00:0.00 / mixed_ref=1 / me_range=48 / chroma_me=1 / trellis=2 / 8x8dct=1 / cqm=0 / deadzone=21,11 / fast_pskip=0 / chroma_qp_offset=-2 / threads=12 / lookahead_threads=2 / sliced_threads=0 / nr=0 / decimate=0 / interlaced=0 / bluray_compat=0 / constrained_intra=0 / bframes=8 / b_pyramid=2 / b_adapt=2 / b_bias=0 / direct=3 / weightb=1 / open_gop=0 / weightp=2 / keyint=250 / keyint_min=23 / scenecut=40 / intra_refresh=0 / rc=crf / mbtree=0 / crf=18.0000 / qcomp=0.60 / qpmin=0 / qpmax=69 / qpstep=4 / ip_ratio=1.30 / pb_ratio=1.20 / aq=3:0.80
  36. Default                                  : Yes
  37. Forced                                   : No
  38.  
  39. Audio #1
  40. ID                                       : 2
  41. Format                                   : AC-3
  42. Format/Info                              : Audio Coding 3
  43. Commercial name                          : Dolby Digital
  44. Codec ID                                 : A_AC3
  45. Duration                                 : 1 h 45 min
  46. Bit rate mode                            : Constant
  47. Bit rate                                 : 384 kb/s
  48. Channel(s)                               : 6 channels
  49. Channel layout                           : L R C LFE Ls Rs
  50. Sampling rate                            : 48.0 kHz
  51. Frame rate                               : 31.250 FPS (1536 SPF)
  52. Compression mode                         : Lossy
  53. Stream size                              : 289 MiB (4%)
  54. Title                                    : [Www.MoviezAddiction.site] - English
  55. Language                                 : English
  56. Service kind                             : Complete Main
  57. Default                                  : No
  58. Forced                                   : No
  59.  
  60. Audio #2
  61. ID                                       : 3
  62. Format                                   : E-AC-3
  63. Format/Info                              : Enhanced AC-3
  64. Commercial name                          : Dolby Digital Plus
  65. Codec ID                                 : A_EAC3
  66. Duration                                 : 1 h 45 min
  67. Bit rate mode                            : Constant
  68. Bit rate                                 : 640 kb/s
  69. Channel(s)                               : 6 channels
  70. Channel layout                           : L R C LFE Ls Rs
  71. Sampling rate                            : 48.0 kHz
  72. Frame rate                               : 31.250 FPS (1536 SPF)
  73. Compression mode                         : Lossy
  74. Stream size                              : 484 MiB (7%)
  75. Title                                    : [Www.MoviezAddiction.site] - Hindi
  76. Language                                 : Hindi
  77. Service kind                             : Complete Main
  78. Default                                  : Yes
  79. Forced                                   : Yes
  80.  
  81. Text
  82. ID                                       : 4
  83. Format                                   : UTF-8
  84. Codec ID                                 : S_TEXT/UTF8
  85. Codec ID/Info                            : UTF-8 Plain Text
  86. Duration                                 : 1 h 43 min
  87. Bit rate                                 : 72 b/s
  88. Count of elements                        : 1705
  89. Stream size                              : 55.1 KiB (0%)
  90. Title                                    : [Www.MoviezAddiction.site] - English
  91. Language                                 : English
  92. Default                                  : Yes
  93. Forced                                   : Yes