The text below is selected, press Ctrl+C to copy to your clipboard. (⌘+C on Mac) No line numbers will be copied.
Where the Crawdads Sing (2022)...

21st January 2023 11:38:06 AM | Views: 10
  1. Format                                   : Matroska
  2. Format version                           : Version 4
  3. File size                                : 5.95 GiB
  4. Duration                                 : 2 h 5 min
  5. Overall bit rate mode                    : Variable
  6. Overall bit rate                         : 6 796 kb/s
  7. Movie name                               : Where the Crawdads Sing (2022) 1080p BluRay x264 Dual Audio [Hindi DDP5.1 + English DTS-HD MA 5.1] ESub 5.95GB [MoviezAddiction]
  8. Encoded date                             : UTC 2023-01-21 09:25:12
  9. Writing application                      : mkvmerge v72.0.0 ('Minuano (Six-eight)') 64-bit
  10. Writing library                          : libebml v1.4.4 + libmatroska v1.7.1
  11.  
  12. Video
  13. ID                                       : 1
  14. Format                                   : AVC
  15. Format/Info                              : Advanced Video Codec
  16. Format profile                           : [email protected]
  17. Format settings                          : CABAC / 5 Ref Frames
  18. Format settings, CABAC                   : Yes
  19. Format settings, Reference frames        : 5 frames
  20. Codec ID                                 : V_MPEG4/ISO/AVC
  21. Duration                                 : 2 h 5 min
  22. Bit rate                                 : 4 000 kb/s
  23. Width                                    : 1 920 pixels
  24. Height                                   : 804 pixels
  25. Display aspect ratio                     : 2.40:1
  26. Frame rate mode                          : Variable
  27. Frame rate                               : 23.976 (24000/1001) FPS
  28. Color space                              : YUV
  29. Chroma subsampling                       : 4:2:0
  30. Bit depth                                : 8 bits
  31. Scan type                                : Progressive
  32. Bits/(Pixel*Frame)                       : 0.108
  33. Stream size                              : 3.50 GiB (59%)
  34. Default                                  : Yes
  35. Forced                                   : No
  36.  
  37. Audio #1
  38. ID                                       : 2
  39. Format                                   : E-AC-3
  40. Format/Info                              : Enhanced AC-3
  41. Commercial name                          : Dolby Digital Plus
  42. Codec ID                                 : A_EAC3
  43. Duration                                 : 2 h 5 min
  44. Bit rate mode                            : Constant
  45. Bit rate                                 : 640 kb/s
  46. Channel(s)                               : 6 channels
  47. Channel layout                           : L R C LFE Ls Rs
  48. Sampling rate                            : 48.0 kHz
  49. Frame rate                               : 31.250 FPS (1536 SPF)
  50. Compression mode                         : Lossy
  51. Delay relative to video                  : 1 s 50 ms
  52. Stream size                              : 574 MiB (9%)
  53. Title                                    : Hindi
  54. Language                                 : Hindi
  55. Service kind                             : Complete Main
  56. Default                                  : Yes
  57. Forced                                   : No
  58.  
  59. Audio #2
  60. ID                                       : 3
  61. Format                                   : DTS XLL
  62. Format/Info                              : Digital Theater Systems
  63. Commercial name                          : DTS-HD Master Audio
  64. Codec ID                                 : A_DTS
  65. Duration                                 : 2 h 5 min
  66. Bit rate mode                            : Variable
  67. Bit rate                                 : 2 126 kb/s
  68. Channel(s)                               : 6 channels
  69. Channel layout                           : C L R Ls Rs LFE
  70. Sampling rate                            : 48.0 kHz
  71. Frame rate                               : 93.750 FPS (512 SPF)
  72. Bit depth                                : 16 bits
  73. Compression mode                         : Lossless
  74. Stream size                              : 1.86 GiB (31%)
  75. Title                                    : English
  76. Language                                 : English
  77. Default                                  : No
  78. Forced                                   : No
  79.  
  80. Text
  81. ID                                       : 4
  82. Format                                   : PGS
  83. Codec ID                                 : S_HDMV/PGS
  84. Codec ID/Info                            : Picture based subtitle format used on BDs/HD-DVDs
  85. Duration                                 : 1 h 59 min
  86. Bit rate                                 : 31.1 kb/s
  87. Frame rate                               : 0.359 FPS
  88. Count of elements                        : 2576
  89. Stream size                              : 26.7 MiB (0%)
  90. Title                                    : English [PGS]
  91. Language                                 : English
  92. Default                                  : Yes
  93. Forced                                   : No
  94.  
  95. Menu
  96. 00:00:00.000                             : en:Chapter 01
  97. 00:08:45.066                             : en:Chapter 02
  98. 00:15:25.966                             : en:Chapter 03
  99. 00:22:13.957                             : en:Chapter 04
  100. 00:29:12.500                             : en:Chapter 05
  101. 00:36:34.150                             : en:Chapter 06
  102. 00:46:39.338                             : en:Chapter 07
  103. 00:54:06.660                             : en:Chapter 08
  104. 01:00:51.230                             : en:Chapter 09
  105. 01:06:52.967                             : en:Chapter 10
  106. 01:15:50.295                             : en:Chapter 11
  107. 01:22:18.767                             : en:Chapter 12
  108. 01:29:23.107                             : en:Chapter 13
  109. 01:36:22.777                             : en:Chapter 14
  110. 01:43:36.335                             : en:Chapter 15
  111. 01:53:23.713                             : en:Chapter 16