The text below is selected, press Ctrl+C to copy to your clipboard. (⌘+C on Mac) No line numbers will be copied.
The Pale Blue Eye (2022)...

20th January 2023 02:41:11 PM | Views: 64
  1. Format                                   : Matroska
  2. Format version                           : Version 4
  3. File size                                : 5.59 GiB
  4. Duration                                 : 2 h 10 min
  5. Overall bit rate mode                    : Variable
  6. Overall bit rate                         : 6 150 kb/s
  7. Movie name                               : The Pale Blue Eye (2022) 1080p NF WEB-DL x264 Dual Audio [Hindi DDP5.1 + English DDP5.1 Atmos] ESub 5.59GB [MoviezAddiction]
  8. Encoded date                             : UTC 2023-01-15 10:00:43
  9. Writing application                      : mkvmerge v72.0.0 ('Minuano (Six-eight)') 64-bit
  10. Writing library                          : libebml v1.4.4 + libmatroska v1.7.1
  11.  
  12. Video
  13. ID                                       : 1
  14. Format                                   : AVC
  15. Format/Info                              : Advanced Video Codec
  16. Format profile                           : [email protected]
  17. Format settings                          : CABAC / 3 Ref Frames
  18. Format settings, CABAC                   : Yes
  19. Format settings, Reference frames        : 3 frames
  20. Codec ID                                 : V_MPEG4/ISO/AVC
  21. Duration                                 : 2 h 10 min
  22. Bit rate mode                            : Variable
  23. Bit rate                                 : 4 740 kb/s
  24. Nominal bit rate                         : 5 000 kb/s
  25. Maximum bit rate                         : 7 500 kb/s
  26. Width                                    : 1 920 pixels
  27. Height                                   : 1 080 pixels
  28. Display aspect ratio                     : 16:9
  29. Frame rate mode                          : Constant
  30. Frame rate                               : 24.000 FPS
  31. Color space                              : YUV
  32. Chroma subsampling                       : 4:2:0
  33. Bit depth                                : 8 bits
  34. Scan type                                : Progressive
  35. Bits/(Pixel*Frame)                       : 0.095
  36. Stream size                              : 4.31 GiB (77%)
  37. Default                                  : Yes
  38. Forced                                   : No
  39.  
  40. Audio #1
  41. ID                                       : 2
  42. Format                                   : E-AC-3
  43. Format/Info                              : Enhanced AC-3
  44. Commercial name                          : Dolby Digital Plus
  45. Codec ID                                 : A_EAC3
  46. Duration                                 : 2 h 10 min
  47. Bit rate mode                            : Constant
  48. Bit rate                                 : 640 kb/s
  49. Channel(s)                               : 6 channels
  50. Channel layout                           : L R C LFE Ls Rs
  51. Sampling rate                            : 48.0 kHz
  52. Frame rate                               : 31.250 FPS (1536 SPF)
  53. Compression mode                         : Lossy
  54. Stream size                              : 596 MiB (10%)
  55. Title                                    : Hindi
  56. Language                                 : Hindi
  57. Service kind                             : Complete Main
  58. Default                                  : Yes
  59. Forced                                   : No
  60.  
  61. Audio #2
  62. ID                                       : 3
  63. Format                                   : E-AC-3 JOC
  64. Format/Info                              : Enhanced AC-3 with Joint Object Coding
  65. Commercial name                          : Dolby Digital Plus with Dolby Atmos
  66. Codec ID                                 : A_EAC3
  67. Duration                                 : 2 h 10 min
  68. Bit rate mode                            : Constant
  69. Bit rate                                 : 768 kb/s
  70. Channel(s)                               : 6 channels
  71. Channel layout                           : L R C LFE Ls Rs
  72. Sampling rate                            : 48.0 kHz
  73. Frame rate                               : 31.250 FPS (1536 SPF)
  74. Compression mode                         : Lossy
  75. Stream size                              : 715 MiB (12%)
  76. Title                                    : English
  77. Language                                 : English
  78. Service kind                             : Complete Main
  79. Default                                  : No
  80. Forced                                   : No
  81. Complexity index                         : 16
  82. Number of dynamic objects                : 15
  83. Bed channel count                        : 1 channel
  84. Bed channel configuration                : LFE
  85.  
  86. Text
  87. ID                                       : 4
  88. Format                                   : UTF-8
  89. Codec ID                                 : S_TEXT/UTF8
  90. Codec ID/Info                            : UTF-8 Plain Text
  91. Duration                                 : 2 h 2 min
  92. Bit rate                                 : 58 b/s
  93. Frame rate                               : 0.212 FPS
  94. Count of elements                        : 1557
  95. Stream size                              : 52.4 KiB (0%)
  96. Title                                    : English [SRT]
  97. Language                                 : English
  98. Default                                  : Yes
  99. Forced                                   : No