The text below is selected, press Ctrl+C to copy to your clipboard. (⌘+C on Mac) No line numbers will be copied.
Son of Sardaar (2012) 1080p...

11th January 2022 07:18:28 AM | Views: 12
  1. Format                                   : Matroska
  2. Format version                           : Version 4
  3. File size                                : 2.33 GiB
  4. Duration                                 : 2 h 20 min
  5. Overall bit rate                         : 2 369 kb/s
  6. Movie name                               : Son of Sardaar (2012) 1080p BluRay x265 10bit HEVC Hindi BD5.1 ESub 2.32GB [www.MoviezAddiction.art]
  7. Encoded date                             : UTC 2022-01-11 05:41:36
  8. Writing application                      : mkvmerge v47.0.0 ('Black Flag') 64-bit
  9. Writing library                          : libebml v1.3.10 + libmatroska v1.5.2
  10.  
  11. Video
  12. ID                                       : 1
  13. Format                                   : HEVC
  14. Format/Info                              : High Efficiency Video Coding
  15. Format profile                           : Main [email protected]@Main
  16. Codec ID                                 : V_MPEGH/ISO/HEVC
  17. Duration                                 : 2 h 20 min
  18. Bit rate                                 : 1 701 kb/s
  19. Width                                    : 1 920 pixels
  20. Height                                   : 832 pixels
  21. Display aspect ratio                     : 2.35:1
  22. Frame rate mode                          : Variable
  23. Frame rate                               : 24.000 FPS
  24. Color space                              : YUV
  25. Chroma subsampling                       : 4:2:0
  26. Bit depth                                : 10 bits
  27. Bits/(Pixel*Frame)                       : 0.044
  28. Stream size                              : 1.67 GiB (72%)
  29. Title                                    : [www.BollyMovies.info]
  30. Default                                  : Yes
  31. Forced                                   : No
  32.  
  33. Audio
  34. ID                                       : 2
  35. Format                                   : AC-3
  36. Format/Info                              : Audio Coding 3
  37. Commercial name                          : Dolby Digital
  38. Codec ID                                 : A_AC3
  39. Duration                                 : 2 h 20 min
  40. Bit rate mode                            : Constant
  41. Bit rate                                 : 640 kb/s
  42. Channel(s)                               : 6 channels
  43. Channel layout                           : L R C LFE Ls Rs
  44. Sampling rate                            : 48.0 kHz
  45. Frame rate                               : 31.250 FPS (1536 SPF)
  46. Compression mode                         : Lossy
  47. Stream size                              : 644 MiB (27%)
  48. Title                                    : [www.MoviezAddiction.art] - Hindi
  49. Language                                 : Hindi
  50. Service kind                             : Complete Main
  51. Default                                  : Yes
  52. Forced                                   : No
  53.  
  54. Text
  55. ID                                       : 3
  56. Format                                   : PGS
  57. Codec ID                                 : S_HDMV/PGS
  58. Codec ID/Info                            : Picture based subtitle format used on BDs/HD-DVDs
  59. Duration                                 : 2 h 13 min
  60. Bit rate                                 : 26.5 kb/s
  61. Count of elements                        : 3738
  62. Stream size                              : 25.4 MiB (1%)
  63. Title                                    : [www.MoviezAddiction.art] - English [PGS]
  64. Language                                 : English
  65. Default                                  : Yes
  66. Forced                                   : No
  67.  
  68. Menu
  69. 00:00:00.000                             : Chapter 01
  70. 00:02:14.500                             : Chapter 02
  71. 00:05:26.625                             : Chapter 03
  72. 00:09:59.000                             : Chapter 04
  73. 00:11:18.292                             : Chapter 05
  74. 00:12:00.417                             : Chapter 06
  75. 00:14:59.542                             : Chapter 07
  76. 00:18:44.667                             : Chapter 08
  77. 00:24:07.792                             : Chapter 09
  78. 00:33:26.750                             : Chapter 10
  79. 00:35:58.125                             : Chapter 11
  80. 00:41:40.125                             : Chapter 12
  81. 00:47:54.458                             : Chapter 13
  82. 00:54:29.625                             : Chapter 14
  83. 01:01:00.000                             : Chapter 15
  84. 01:08:58.167                             : Chapter 16
  85. 01:12:48.542                             : Chapter 17
  86. 01:17:01.958                             : Chapter 18
  87. 01:20:50.458                             : Chapter 19
  88. 01:24:14.833                             : Chapter 20
  89. 01:34:19.083                             : Chapter 21
  90. 01:36:10.250                             : Chapter 22
  91. 01:39:19.792                             : Chapter 23
  92. 01:41:21.417                             : Chapter 24
  93. 01:45:25.542                             : Chapter 25
  94. 01:51:41.458                             : Chapter 26
  95. 01:56:43.917                             : Chapter 27
  96. 02:04:05.375                             : Chapter 28
  97. 02:12:07.458                             : Chapter 29
  98. 02:16:08.833                             : Chapter 30