The text below is selected, press Ctrl+C to copy to your clipboard. (⌘+C on Mac) No line numbers will be copied.
MediaInfo

25th February 2019 06:04:40 AM | Views: 746
  1. Format                      : Matroska
  2. Format version              : Version 4
  3. File size                   : 5.50 GiB
  4. Duration                    : 3 h 55 min
  5. Overall bit rate            : 3 347 kb/s
  6. Movie name                  : The.Lord.of.the.Rings.The.Two.Towers.2002.EXTENDED.1080p.BluRay.10bit.HEVC.6CH.MkvCage.ws
  7. Encoded date                : UTC 2019-02-24 17:26:51
  8. Writing application         : mkvmerge v30.1.0 ('Forever And More') 64-bit
  9. Writing library             : libebml v1.3.6 + libmatroska v1.4.9
  10. Cover                       : Yes
  11. Attachments                 : cover.jpg
  12.  
  13. Video
  14. ID                          : 1
  15. Format                      : HEVC
  16. Format/Info                 : High Efficiency Video Coding
  17. Format profile              : Main [email protected]@Main
  18. Codec ID                    : V_MPEGH/ISO/HEVC
  19. Duration                    : 3 h 55 min
  20. Bit rate                    : 3 153 kb/s
  21. Width                       : 1 920 pixels
  22. Height                      : 800 pixels
  23. Display aspect ratio        : 2.40:1
  24. Frame rate mode             : Constant
  25. Frame rate                  : 23.976 (24000/1001) FPS
  26. Color space                 : YUV
  27. Chroma subsampling          : 4:2:0
  28. Bit depth                   : 10 bits
  29. Bits/(Pixel*Frame)          : 0.086
  30. Stream size                 : 5.18 GiB (94%)
  31. Default                     : Yes
  32. Forced                      : No
  33.  
  34. Audio
  35. ID                          : 2
  36. Format                      : AAC LC SBR
  37. Format/Info                 : Advanced Audio Codec Low Complexity with Spectral Band Replication
  38. Commercial name             : HE-AAC
  39. Format settings             : Explicit
  40. Codec ID                    : A_AAC-2
  41. Duration                    : 3 h 55 min
  42. Bit rate                    : 192 kb/s
  43. Channel(s)                  : 6 channels
  44. Channel layout              : C L R Ls Rs LFE
  45. Sampling rate               : 48.0 kHz
  46. Frame rate                  : 23.438 FPS (2048 SPF)
  47. Compression mode            : Lossy
  48. Delay relative to video     : 43 ms
  49. Stream size                 : 323 MiB (6%)
  50. Language                    : English
  51. Default                     : Yes
  52. Forced                      : No
  53.  
  54. Text #1
  55. ID                          : 3
  56. Format                      : UTF-8
  57. Codec ID                    : S_TEXT/UTF8
  58. Codec ID/Info               : UTF-8 Plain Text
  59. Duration                    : 3 h 33 min
  60. Bit rate                    : 40 b/s
  61. Count of elements           : 2204
  62. Stream size                 : 62.5 KiB (0%)
  63. Title                       : HI
  64. Language                    : English
  65. Default                     : Yes
  66. Forced                      : No
  67.  
  68. Text #2
  69. ID                          : 4
  70. Format                      : UTF-8
  71. Codec ID                    : S_TEXT/UTF8
  72. Codec ID/Info               : UTF-8 Plain Text
  73. Duration                    : 3 h 33 min
  74. Bit rate                    : 37 b/s
  75. Count of elements           : 2056
  76. Stream size                 : 58.3 KiB (0%)
  77. Language                    : English
  78. Default                     : No
  79. Forced                      : No
  80.  
  81. Text #3
  82. ID                          : 5
  83. Format                      : UTF-8
  84. Codec ID                    : S_TEXT/UTF8
  85. Codec ID/Info               : UTF-8 Plain Text
  86. Duration                    : 2 h 8 min
  87. Bit rate                    : 1 b/s
  88. Count of elements           : 68
  89. Stream size                 : 1.59 KiB (0%)
  90. Title                       : Foreign Parts
  91. Language                    : English
  92. Default                     : No
  93. Forced                      : No
  94.  
  95. Menu
  96. 00:00:00.000                : en:The Foundations of Stone
  97. 00:04:08.748                : en:Elven Rope
  98. 00:06:10.829                : en:The Taming of Sméagol
  99. 00:14:44.967                : en:The Uruk-hai
  100. 00:17:06.609                : en:The Three Huners
  101. 00:19:17.948                : en:The Burning of the Westfold
  102. 00:23:07.094                : en:Massacre at the Fords of Isen
  103. 00:23:58.312                : en:The Banishment of Éomer
  104. 00:27:09.044                : en:On the Trail of the Uruk-hai
  105. 00:28:03.181                : en:Night Camp at Fangorn
  106. 00:31:38.230                : en:The Riders of Rohan
  107. 00:35:45.518                : en:The Fate of Merry and Pippin
  108. 00:38:17.879                : en:Treebeard
  109. 00:41:47.797                : en:The Passage of the Marshes
  110. 00:50:49.755                : en:The White Rider
  111. 00:58:19.413                : en:The Song of the Entwives
  112. 01:00:40.178                : en:The Heir of Númenor
  113. 01:02:48.306                : en:The Black Gate is Closed
  114. 01:08:05.999                : en:Ent Draft
  115. 01:12:41.732                : en:The King of the Golden Hall
  116. 01:24:17.344                : en:The Funeral of Théodred
  117. 01:25:41.636                : en:Simbelmynë on the Burial Mounds
  118. 01:27:34.332                : en:The King's Decision
  119. 01:30:45.523                : en:Brego
  120. 01:32:30.587                : en:The Ring of Barahir
  121. 01:34:31.040                : en:A Daughter of Kings
  122. 01:35:57.043                : en:Exodus from Edoras
  123. 01:37:02.316                : en:The Forests of Ithilien
  124. 01:38:43.960                : en:Gollum and Sméagol
  125. 01:41:14.819                : en:Of Herbs and Stewed Rabbit
  126. 01:46:35.973                : en:Dwarf Women
  127. 01:47:17.764                : en:One of the Dúnedain
  128. 01:49:47.622                : en:The Evenstar
  129. 01:54:54.179                : en:The Wolves of Isengard
  130. 02:01:32.368                : en:Helm's Deep
  131. 02:04:12.486                : en:Isengard Unleashed
  132. 02:06:48.934                : en:The Grace of the Valar
  133. 02:08:26.490                : en:Arwen's Fate
  134. 02:12:09.254                : en:The Story Foreseen from Lórien
  135. 02:14:35.233                : en:The Window on the West
  136. 02:18:24.838                : en:Sons of the Steward
  137. 02:23:04.409                : en:The Forbidden Pool
  138. 02:30:26.100                : en:Aragorn's Return
  139. 02:35:59.350                : en:Entmoot
  140. 02:37:19.221                : en:The Glittering Caves
  141. 02:40:27.492                : en:"Where is the Horses and the Rider?"
  142. 02:42:12.222                : en:"Don't Be Hasty, Master Meriadoc!"
  143. 02:43:02.898                : en:The Host of the Elder
  144. 02:46:36.987                : en:The Battle of the Hornburg
  145. 02:52:59.369                : en:Old Entish
  146. 02:54:36.424                : en:The Breach of the Deeping Wall
  147. 02:58:01.545                : en:The Entmoot Decides
  148. 02:59:46.692                : en:The Retreat to the Hornburg
  149. 03:05:49.179                : en:Master Peregrin's Plan
  150. 03:07:14.264                : en:Osgiliath
  151. 03:07:49.007                : en:The Last March of the Ents
  152. 03:10:18.532                : en:The Nazgûl Attack
  153. 03:12:50.517                : en:Forth Eorlingas
  154. 03:17:29.003                : en:The Flooding of Isengard
  155. 03:19:55.358                : en:The Tales That Really Mattered...
  156. 03:24:40.643                : en:Fangorn Comes to Helm's Deep
  157. 03:25:33.195                : en:The Final Talfy
  158. 03:26:13.736                : en:Flotsam and Jetsam
  159. 03:28:17.526                : en:Farewell to Faramir
  160. 03:30:47.384                : en:"The Battle for Middle-earth is About to Begin"
  161. 03:32:27.067                : en:Gollum's Plan
  162. 03:34:51.211                : en:End Credits
  163. 03:43:47.497                : en:Fan Club Credits