The text below is selected, press Ctrl+C to copy to your clipboard. (⌘+C on Mac) No line numbers will be copied.
MediaInfo

28th June 2019 01:44:46 PM | Views: 365
  1. Format                      : Matroska
  2. Format version              : Version 4
  3. File size                   : 1.01 GiB
  4. Duration                    : 2 h 1 min
  5. Overall bit rate            : 1 182 kb/s
  6. Movie name                  : Alita.Battle.Angel.2019.720p.HDRip.x264-MkvCage.Com
  7. Encoded date                : UTC 2019-06-28 13:42:16
  8. Writing application         : mkvmerge v32.0.0 ('Astral Progressions') 64-bit
  9. Writing library             : libebml v1.3.7 + libmatroska v1.5.0
  10.  
  11. Video
  12. ID                          : 3
  13. Format                      : AVC
  14. Format/Info                 : Advanced Video Codec
  15. Format profile              : [email protected]
  16. Format settings             : CABAC / 5 Ref Frames
  17. Format settings, CABAC      : Yes
  18. Format settings, ReFrames   : 5 frames
  19. Codec ID                    : V_MPEG4/ISO/AVC
  20. Duration                    : 2 h 1 min
  21. Bit rate                    : 1 116 kb/s
  22. Width                       : 1 280 pixels
  23. Height                      : 720 pixels
  24. Display aspect ratio        : 16:9
  25. Frame rate mode             : Constant
  26. Frame rate                  : 23.976 (24000/1001) FPS
  27. Color space                 : YUV
  28. Chroma subsampling          : 4:2:0
  29. Bit depth                   : 8 bits
  30. Scan type                   : Progressive
  31. Bits/(Pixel*Frame)          : 0.051
  32. Stream size                 : 972 MiB (94%)
  33. Writing library             : x264 core 157 r2935 545de2f
  34. Encoding settings           : cabac=1 / ref=5 / deblock=1:-1:-1 / analyse=0x3:0x133 / me=umh / subme=9 / psy=1 / psy_rd=1.00:0.10 / mixed_ref=1 / me_range=24 / chroma_me=1 / trellis=2 / 8x8dct=1 / cqm=0 / deadzone=21,11 / fast_pskip=1 / chroma_qp_offset=-3 / threads=22 / lookahead_threads=1 / sliced_threads=0 / nr=0 / decimate=1 / interlaced=0 / bluray_compat=0 / constrained_intra=0 / bframes=3 / b_pyramid=2 / b_adapt=2 / b_bias=0 / direct=3 / weightb=1 / open_gop=0 / weightp=2 / keyint=250 / keyint_min=23 / scenecut=40 / intra_refresh=0 / rc_lookahead=60 / rc=2pass / mbtree=1 / bitrate=1116 / ratetol=1.0 / qcomp=0.60 / qpmin=0 / qpmax=69 / qpstep=4 / cplxblur=20.0 / qblur=0.5 / ip_ratio=1.40 / aq=1:1.00
  35. Default                     : Yes
  36. Forced                      : No
  37.  
  38. Audio
  39. ID                          : 4
  40. Format                      : AAC LC SBR
  41. Format/Info                 : Advanced Audio Codec Low Complexity with Spectral Band Replication
  42. Commercial name             : HE-AAC
  43. Format settings             : Explicit
  44. Codec ID                    : A_AAC-2
  45. Duration                    : 2 h 1 min
  46. Bit rate                    : 64.0 kb/s
  47. Channel(s)                  : 2 channels
  48. Channel layout              : L R
  49. Sampling rate               : 44.1 kHz
  50. Frame rate                  : 21.533 FPS (2048 SPF)
  51. Compression mode            : Lossy
  52. Delay relative to video     : 10 ms
  53. Stream size                 : 55.8 MiB (5%)
  54. Language                    : English
  55. Default                     : Yes
  56. Forced                      : No
  57.  
  58. Text #1
  59. ID                          : 1
  60. Format                      : UTF-8
  61. Codec ID                    : S_TEXT/UTF8
  62. Codec ID/Info               : UTF-8 Plain Text
  63. Duration                    : 1 h 56 min
  64. Bit rate                    : 40 b/s
  65. Count of elements           : 1349
  66. Stream size                 : 34.9 KiB (0%)
  67. Language                    : English
  68. Default                     : Yes
  69. Forced                      : No
  70.  
  71. Text #2
  72. ID                          : 2
  73. Format                      : UTF-8
  74. Codec ID                    : S_TEXT/UTF8
  75. Codec ID/Info               : UTF-8 Plain Text
  76. Duration                    : 1 h 56 min
  77. Bit rate                    : 46 b/s
  78. Count of elements           : 1590
  79. Stream size                 : 39.4 KiB (0%)
  80. Title                       : SDH
  81. Language                    : English
  82. Default                     : No
  83. Forced                      : No