The text below is selected, press Ctrl+C to copy to your clipboard. (⌘+C on Mac) No line numbers will be copied.
The Kissing Booth (2018) 1080p...

27th June 2020 09:52:17 AM | Views: 12
  1. Format                                   : Matroska
  2. Format version                           : Version 4
  3. File size                                : 2.01 GiB
  4. Duration                                 : 1 h 45 min
  5. Overall bit rate                         : 2 723 kb/s
  6. Movie name                               : The Kissing Booth (2018) 1080p WEB-DL x265 10bit HEVC Dual Audio [Hindi DD5.1 + English DD5.1] ESub 2.01GB [Www.MoviezAddiction.site]
  7. Encoded date                             : UTC 2020-06-27 03:14:07
  8. Writing application                      : mkvmerge v47.0.0 ('Black Flag') 64-bit
  9. Writing library                          : libebml v1.3.10 + libmatroska v1.5.2
  10.  
  11. Video
  12. ID                                       : 1
  13. Format                                   : HEVC
  14. Format/Info                              : High Efficiency Video Coding
  15. Format profile                           : Main [email protected]@Main
  16. Codec ID                                 : V_MPEGH/ISO/HEVC
  17. Duration                                 : 1 h 45 min
  18. Bit rate                                 : 1 712 kb/s
  19. Width                                    : 1 920 pixels
  20. Height                                   : 872 pixels
  21. Display aspect ratio                     : 2.2:1
  22. Frame rate mode                          : Constant
  23. Frame rate                               : 23.976 (24000/1001) FPS
  24. Color space                              : YUV
  25. Chroma subsampling                       : 4:2:0
  26. Bit depth                                : 10 bits
  27. Bits/(Pixel*Frame)                       : 0.043
  28. Stream size                              : 1.26 GiB (62%)
  29. Title                                    : [Www.MoviezAddiction.site]
  30. Default                                  : Yes
  31. Forced                                   : No
  32.  
  33. Audio #1
  34. ID                                       : 2
  35. Format                                   : AC-3
  36. Format/Info                              : Audio Coding 3
  37. Commercial name                          : Dolby Digital
  38. Codec ID                                 : A_AC3
  39. Duration                                 : 1 h 45 min
  40. Bit rate mode                            : Constant
  41. Bit rate                                 : 384 kb/s
  42. Channel(s)                               : 6 channels
  43. Channel layout                           : L R C LFE Ls Rs
  44. Sampling rate                            : 48.0 kHz
  45. Frame rate                               : 31.250 FPS (1536 SPF)
  46. Compression mode                         : Lossy
  47. Stream size                              : 289 MiB (14%)
  48. Title                                    : [Www.MoviezAddiction.site] - English
  49. Language                                 : English
  50. Service kind                             : Complete Main
  51. Default                                  : No
  52. Forced                                   : No
  53.  
  54. Audio #2
  55. ID                                       : 3
  56. Format                                   : E-AC-3
  57. Format/Info                              : Enhanced AC-3
  58. Commercial name                          : Dolby Digital Plus
  59. Codec ID                                 : A_EAC3
  60. Duration                                 : 1 h 45 min
  61. Bit rate mode                            : Constant
  62. Bit rate                                 : 640 kb/s
  63. Channel(s)                               : 6 channels
  64. Channel layout                           : L R C LFE Ls Rs
  65. Sampling rate                            : 48.0 kHz
  66. Frame rate                               : 31.250 FPS (1536 SPF)
  67. Compression mode                         : Lossy
  68. Stream size                              : 484 MiB (24%)
  69. Title                                    : [Www.MoviezAddiction.site] - Hindi
  70. Language                                 : Hindi
  71. Service kind                             : Complete Main
  72. Default                                  : Yes
  73. Forced                                   : Yes
  74.  
  75. Text
  76. ID                                       : 4
  77. Format                                   : UTF-8
  78. Codec ID                                 : S_TEXT/UTF8
  79. Codec ID/Info                            : UTF-8 Plain Text
  80. Duration                                 : 1 h 43 min
  81. Bit rate                                 : 72 b/s
  82. Count of elements                        : 1705
  83. Stream size                              : 55.1 KiB (0%)
  84. Title                                    : [Www.MoviezAddiction.site] - English
  85. Language                                 : English
  86. Default                                  : Yes
  87. Forced                                   : Yes