The text below is selected, press Ctrl+C to copy to your clipboard. (⌘+C on Mac) No line numbers will be copied.
The Thing (1982) 2160p UHD...

6th November 2022 04:07:55 PM | Views: 17
  1. Format                                   : Matroska
  2. Format version                           : Version 4
  3. File size                                : 70.1 GiB
  4. Duration                                 : 1 h 48 min
  5. Overall bit rate mode                    : Variable
  6. Overall bit rate                         : 92.4 Mb/s
  7. Movie name                               : The Thing (1982) 2160p UHD BluRay REMUX x265 10bit HDR HEVC Dual Audio [Hindi VCD DD2.0 + English DTS-X 7.1] ESub 70.1GB [MoviezAddiction.life]
  8. Encoded date                             : UTC 2022-11-05 13:00:08
  9. Writing application                      : mkvmerge v71.1.0 ('Fortitude') 64-bit
  10. Writing library                          : libebml v1.4.4 + libmatroska v1.7.1
  11.  
  12. Video
  13. ID                                       : 1
  14. ID in the original source medium         : 4113 (0x1011)
  15. Format                                   : HEVC
  16. Format/Info                              : High Efficiency Video Coding
  17. Format profile                           : Main [email protected]@High
  18. HDR format                               : SMPTE ST 2086, HDR10 compatible
  19. Codec ID                                 : V_MPEGH/ISO/HEVC
  20. Duration                                 : 1 h 48 min
  21. Bit rate                                 : 85.5 Mb/s
  22. Width                                    : 3 840 pixels
  23. Height                                   : 2 160 pixels
  24. Display aspect ratio                     : 16:9
  25. Frame rate mode                          : Constant
  26. Frame rate                               : 23.976 (24000/1001) FPS
  27. Color space                              : YUV
  28. Chroma subsampling                       : 4:2:0 (Type 2)
  29. Bit depth                                : 10 bits
  30. Bits/(Pixel*Frame)                       : 0.430
  31. Stream size                              : 64.9 GiB (92%)
  32. Default                                  : Yes
  33. Forced                                   : No
  34. Color range                              : Limited
  35. Color primaries                          : BT.2020
  36. Transfer characteristics                 : PQ
  37. Matrix coefficients                      : BT.2020 non-constant
  38. Mastering display color primaries        : Display P3
  39. Mastering display luminance              : min: 0.0050 cd/m2, max: 1000 cd/m2
  40. Maximum Content Light Level              : 1000 cd/m2
  41. Maximum Frame-Average Light Level        : 323 cd/m2
  42. Original source medium                   : Blu-ray
  43.  
  44. Audio #1
  45. ID                                       : 2
  46. Format                                   : AC-3
  47. Format/Info                              : Audio Coding 3
  48. Commercial name                          : Dolby Digital
  49. Codec ID                                 : A_AC3
  50. Duration                                 : 1 h 48 min
  51. Bit rate mode                            : Constant
  52. Bit rate                                 : 224 kb/s
  53. Channel(s)                               : 2 channels
  54. Channel layout                           : L R
  55. Sampling rate                            : 48.0 kHz
  56. Frame rate                               : 31.250 FPS (1536 SPF)
  57. Compression mode                         : Lossy
  58. Stream size                              : 174 MiB (0%)
  59. Title                                    : Hindi
  60. Language                                 : Hindi
  61. Service kind                             : Complete Main
  62. Default                                  : Yes
  63. Forced                                   : No
  64.  
  65. Audio #2
  66. ID                                       : 3
  67. ID in the original source medium         : 4352 (0x1100)
  68. Format                                   : DTS XLL X
  69. Format/Info                              : Digital Theater Systems
  70. Commercial name                          : DTS-HD Master Audio
  71. Codec ID                                 : A_DTS
  72. Duration                                 : 1 h 48 min
  73. Bit rate mode                            : Variable
  74. Bit rate                                 : 6 697 kb/s
  75. Channel(s)                               : 8 channels
  76. Channel(s)_Original                      : Object Based
  77. ChannelLayout_Original                   : Object Based
  78. Sampling rate                            : 48.0 kHz
  79. Frame rate                               : 93.750 FPS (512 SPF)
  80. Bit depth                                : 24 bits
  81. Stream size                              : 5.08 GiB (7%)
  82. Title                                    : English
  83. Language                                 : English
  84. Default                                  : No
  85. Forced                                   : No
  86. Original source medium                   : Blu-ray
  87.  
  88. Text
  89. ID                                       : 4
  90. ID in the original source medium         : 4768 (0x12A0)
  91. Format                                   : PGS
  92. Codec ID                                 : S_HDMV/PGS
  93. Codec ID/Info                            : Picture based subtitle format used on BDs/HD-DVDs
  94. Duration                                 : 1 h 37 min
  95. Bit rate                                 : 23.0 kb/s
  96. Frame rate                               : 0.260 FPS
  97. Count of elements                        : 1517
  98. Stream size                              : 16.0 MiB (0%)
  99. Title                                    : English [PGS]
  100. Language                                 : English
  101. Default                                  : Yes
  102. Forced                                   : No
  103. Original source medium                   : Blu-ray
  104.  
  105. Menu
  106. 00:00:00.000                             : en:Chapter 01
  107. 00:02:06.793                             : en:Chapter 02
  108. 00:04:33.773                             : en:Chapter 03
  109. 00:07:01.838                             : en:Chapter 04
  110. 00:10:23.247                             : en:Chapter 05
  111. 00:14:21.861                             : en:Chapter 06
  112. 00:15:48.155                             : en:Chapter 07
  113. 00:22:13.540                             : en:Chapter 08
  114. 00:24:49.446                             : en:Chapter 09
  115. 00:27:00.619                             : en:Chapter 10
  116. 00:30:12.769                             : en:Chapter 11
  117. 00:33:02.438                             : en:Chapter 12
  118. 00:34:14.719                             : en:Chapter 13
  119. 00:36:02.285                             : en:Chapter 14
  120. 00:37:21.280                             : en:Chapter 15
  121. 00:40:04.068                             : en:Chapter 16
  122. 00:41:43.626                             : en:Chapter 17
  123. 00:45:31.061                             : en:Chapter 18
  124. 00:46:30.746                             : en:Chapter 19
  125. 00:50:17.014                             : en:Chapter 20
  126. 00:54:43.029                             : en:Chapter 21
  127. 00:57:35.034                             : en:Chapter 22
  128. 00:59:07.710                             : en:Chapter 23
  129. 01:02:46.387                             : en:Chapter 24
  130. 01:05:27.381                             : en:Chapter 25
  131. 01:09:50.978                             : en:Chapter 26
  132. 01:14:22.291                             : en:Chapter 27
  133. 01:17:42.366                             : en:Chapter 28
  134. 01:18:43.635                             : en:Chapter 29
  135. 01:25:17.278                             : en:Chapter 30
  136. 01:26:39.903                             : en:Chapter 31
  137. 01:29:18.144                             : en:Chapter 32
  138. 01:31:13.968                             : en:Chapter 33
  139. 01:34:24.700                             : en:Chapter 34
  140. 01:37:18.332                             : en:Chapter 35
  141. 01:39:13.447                             : en:Chapter 36
  142. 01:42:08.205                             : en:Chapter 37