The text below is selected, press Ctrl+C to copy to your clipboard. (⌘+C on Mac) No line numbers will be copied.
Haasil 2003

20th September 2020 11:27:52 AM | Views: 33
  1. General
  2. Unique ID                                : 303141662356818901379149964869605230740 (0xE40EF5E2D5008CC6A0B0A5D509C78894)
  3. Complete name                            : Haasil 2003 1080p DVD-Rip x264 DD 5.1 ~LustMovies.pro~ (7.1 G).mkv
  4. Format                                   : Matroska
  5. Format version                           : Version 4
  6. File size                                : 7.13 GiB
  7. Duration                                 : 2 h 40 min
  8. Overall bit rate                         : 6 373 kb/s
  9. Movie name                               : LustMovies.pro | Haasil 2003
  10. Encoded date                             : UTC 2020-05-01 04:51:17
  11. Writing application                      : mkvmerge v44.0.0 ('Domino') 64-bit
  12. Writing library                          : libebml v1.3.10 + libmatroska v1.5.2
  13.  
  14. Video
  15. ID                                       : 1
  16. Format                                   : AVC
  17. Format/Info                              : Advanced Video Codec
  18. Format profile                           : [email protected]
  19. Format settings                          : CABAC / 4 Ref Frames
  20. Format settings, CABAC                   : Yes
  21. Format settings, Reference frames        : 4 frames
  22. Codec ID                                 : V_MPEG4/ISO/AVC
  23. Duration                                 : 2 h 40 min
  24. Bit rate                                 : 6 000 kb/s
  25. Width                                    : 1 920 pixels
  26. Height                                   : 852 pixels
  27. Display aspect ratio                     : 2.25:1
  28. Frame rate mode                          : Constant
  29. Frame rate                               : 23.976 (24000/1001) FPS
  30. Color space                              : YUV
  31. Chroma subsampling                       : 4:2:0
  32. Bit depth                                : 8 bits
  33. Scan type                                : Progressive
  34. Bits/(Pixel*Frame)                       : 0.153
  35. Stream size                              : 6.56 GiB (92%)
  36. Title                                    : LustMovies.pro
  37. Writing library                          : x264 core 142 r2431 ac76440
  38. Encoding settings                        : cabac=1 / ref=3 / deblock=1:0:0 / analyse=0x3:0x113 / me=hex / subme=7 / psy=1 / psy_rd=1.00:0.00 / mixed_ref=1 / me_range=16 / chroma_me=1 / trellis=1 / 8x8dct=1 / cqm=0 / deadzone=21,11 / fast_pskip=1 / chroma_qp_offset=-2 / threads=12 / lookahead_threads=2 / sliced_threads=0 / nr=0 / decimate=1 / interlaced=0 / bluray_compat=0 / constrained_intra=0 / bframes=3 / b_pyramid=2 / b_adapt=1 / b_bias=0 / direct=1 / weightb=1 / open_gop=0 / weightp=2 / keyint=240 / keyint_min=23 / scenecut=40 / intra_refresh=0 / rc_lookahead=40 / rc=abr / mbtree=1 / bitrate=6000 / ratetol=1.0 / qcomp=0.60 / qpmin=0 / qpmax=69 / qpstep=4 / ip_ratio=1.40 / aq=1:1.00
  39. Default                                  : Yes
  40. Forced                                   : No
  41. Duration_Source                          : General_Duration
  42.  
  43. Audio
  44. ID                                       : 2
  45. Format                                   : AC-3
  46. Format/Info                              : Audio Coding 3
  47. Commercial name                          : Dolby Digital
  48. Codec ID                                 : A_AC3
  49. Duration                                 : 2 h 40 min
  50. Bit rate mode                            : Constant
  51. Bit rate                                 : 384 kb/s
  52. Channel(s)                               : 6 channels
  53. Channel layout                           : L R C LFE Ls Rs
  54. Sampling rate                            : 48.0 kHz
  55. Frame rate                               : 31.250 FPS (1536 SPF)
  56. Compression mode                         : Lossy
  57. Stream size                              : 440 MiB (6%)
  58. Title                                    : LustMovies.pro
  59. Service kind                             : Complete Main
  60. Default                                  : Yes
  61. Forced                                   : No
  62. Duration_Source                          : General_Duration
  63.  
  64. Text
  65. ID                                       : 3
  66. Format                                   : UTF-8
  67. Codec ID                                 : S_TEXT/UTF8
  68. Codec ID/Info                            : UTF-8 Plain Text
  69. Title                                    : LustMovies.pro
  70. Language                                 : English
  71. Default                                  : No
  72. Forced                                   : No
  73.  
  74. General
  75. Unique ID                                : 199850561082698826680487364190920791841 (0x9659D16864DD16D4AB0D9330BFF45721)
  76. Complete name                            : Haasil 2003 1080p DVD-Rip x264 DD 5.1 ~LustMovies.pro~ (4.4 G).mkv
  77. Format                                   : Matroska
  78. Format version                           : Version 4
  79. File size                                : 4.35 GiB
  80. Duration                                 : 2 h 40 min
  81. Overall bit rate                         : 3 887 kb/s
  82. Movie name                               : LustMovies.pro | Haasil 2003
  83. Encoded date                             : UTC 2020-09-20 08:10:55
  84. Writing application                      : HandBrake 1.2.1 2019021900
  85. Writing library                          : Lavf58.20.100
  86. ErrorDetectionType                       : Per level 1
  87.  
  88. Video
  89. ID                                       : 1
  90. Format                                   : AVC
  91. Format/Info                              : Advanced Video Codec
  92. Format profile                           : [email protected]
  93. Format settings                          : CABAC / 4 Ref Frames
  94. Format settings, CABAC                   : Yes
  95. Format settings, Reference frames        : 4 frames
  96. Codec ID                                 : V_MPEG4/ISO/AVC
  97. Duration                                 : 2 h 40 min
  98. Bit rate                                 : 3 500 kb/s
  99. Width                                    : 1 920 pixels
  100. Height                                   : 852 pixels
  101. Display aspect ratio                     : 2.25:1
  102. Frame rate mode                          : Constant
  103. Frame rate                               : 23.976 (24000/1001) FPS
  104. Color space                              : YUV
  105. Chroma subsampling                       : 4:2:0
  106. Bit depth                                : 8 bits
  107. Scan type                                : Progressive
  108. Bits/(Pixel*Frame)                       : 0.089
  109. Stream size                              : 3.84 GiB (88%)
  110. Title                                    : LustMovies.pro
  111. Writing library                          : x264 core 152 r2854 e9a5903
  112. Encoding settings                        : cabac=1 / ref=1 / deblock=1:-1:-1 / analyse=0x3:0x113 / me=hex / subme=2 / psy=1 / psy_rd=1.00:0.15 / mixed_ref=0 / me_range=16 / chroma_me=1 / trellis=0 / 8x8dct=1 / cqm=0 / deadzone=21,11 / fast_pskip=1 / chroma_qp_offset=0 / threads=27 / lookahead_threads=6 / sliced_threads=0 / nr=0 / decimate=1 / interlaced=0 / bluray_compat=0 / constrained_intra=0 / bframes=3 / b_pyramid=2 / b_adapt=1 / b_bias=0 / direct=1 / weightb=1 / open_gop=0 / weightp=1 / keyint=240 / keyint_min=24 / scenecut=40 / intra_refresh=0 / rc_lookahead=10 / rc=2pass / mbtree=1 / bitrate=3500 / ratetol=1.0 / qcomp=0.60 / qpmin=0 / qpmax=69 / qpstep=4 / cplxblur=20.0 / qblur=0.5 / vbv_maxrate=62500 / vbv_bufsize=78125 / nal_hrd=none / filler=0 / ip_ratio=1.40 / aq=1:1.00
  113. Default                                  : Yes
  114. Forced                                   : No
  115. Color range                              : Limited
  116. Color primaries                          : BT.709
  117. Transfer characteristics                 : BT.709
  118. Matrix coefficients                      : BT.709
  119. Duration_Source                          : General_Duration
  120.  
  121. Audio
  122. ID                                       : 2
  123. Format                                   : AC-3
  124. Format/Info                              : Audio Coding 3
  125. Commercial name                          : Dolby Digital
  126. Codec ID                                 : A_AC3
  127. Duration                                 : 2 h 40 min
  128. Bit rate mode                            : Constant
  129. Bit rate                                 : 384 kb/s
  130. Channel(s)                               : 6 channels
  131. Channel layout                           : L R C LFE Ls Rs
  132. Sampling rate                            : 48.0 kHz
  133. Frame rate                               : 31.250 FPS (1536 SPF)
  134. Compression mode                         : Lossy
  135. Stream size                              : 440 MiB (10%)
  136. Title                                    : LustMovies.pro
  137. Service kind                             : Complete Main
  138. Default                                  : Yes
  139. Forced                                   : No
  140. Duration_Source                          : General_Duration
  141.  
  142. Text
  143. ID                                       : 3
  144. Format                                   : ASS
  145. Codec ID                                 : S_TEXT/ASS
  146. Codec ID/Info                            : Advanced Sub Station Alpha
  147. Compression mode                         : Lossless
  148. Title                                    : LustMovies.pro
  149. Language                                 : English
  150. Default                                  : No
  151. Forced                                   : No
  152.  
  153. General
  154. Unique ID                                : 18497080880592401458638467323858754130 (0xDEA687F7A8351B697FC58A0F8D39A52)
  155. Complete name                            : Haasil 2003 720p DVD-Rip x264 DD 5.1 ~LustMovies.pro~ (1.4 G).mkv
  156. Format                                   : Matroska
  157. Format version                           : Version 4
  158. File size                                : 1.37 GiB
  159. Duration                                 : 2 h 40 min
  160. Overall bit rate                         : 1 227 kb/s
  161. Movie name                               : LustMovies.pro | Haasil 2003
  162. Encoded date                             : UTC 2020-09-20 04:34:10
  163. Writing application                      : HandBrake 1.2.1 2019021900
  164. Writing library                          : Lavf58.20.100
  165. ErrorDetectionType                       : Per level 1
  166.  
  167. Video
  168. ID                                       : 1
  169. Format                                   : AVC
  170. Format/Info                              : Advanced Video Codec
  171. Format profile                           : [email protected]
  172. Format settings                          : CABAC / 4 Ref Frames
  173. Format settings, CABAC                   : Yes
  174. Format settings, Reference frames        : 4 frames
  175. Codec ID                                 : V_MPEG4/ISO/AVC
  176. Duration                                 : 2 h 40 min
  177. Bit rate                                 : 1 000 kb/s
  178. Width                                    : 1 280 pixels
  179. Height                                   : 720 pixels
  180. Display aspect ratio                     : 2.25:1
  181. Frame rate mode                          : Constant
  182. Frame rate                               : 23.976 (24000/1001) FPS
  183. Color space                              : YUV
  184. Chroma subsampling                       : 4:2:0
  185. Bit depth                                : 8 bits
  186. Scan type                                : Progressive
  187. Bits/(Pixel*Frame)                       : 0.045
  188. Stream size                              : 1.10 GiB (80%)
  189. Title                                    : LustMovies.pro
  190. Writing library                          : x264 core 152 r2854 e9a5903
  191. Encoding settings                        : cabac=1 / ref=1 / deblock=1:-1:-1 / analyse=0x3:0x113 / me=hex / subme=2 / psy=1 / psy_rd=1.00:0.15 / mixed_ref=0 / me_range=16 / chroma_me=1 / trellis=0 / 8x8dct=1 / cqm=0 / deadzone=21,11 / fast_pskip=1 / chroma_qp_offset=0 / threads=22 / lookahead_threads=5 / sliced_threads=0 / nr=0 / decimate=1 / interlaced=0 / bluray_compat=0 / constrained_intra=0 / bframes=3 / b_pyramid=2 / b_adapt=1 / b_bias=0 / direct=1 / weightb=1 / open_gop=0 / weightp=1 / keyint=240 / keyint_min=24 / scenecut=40 / intra_refresh=0 / rc_lookahead=10 / rc=2pass / mbtree=1 / bitrate=1000 / ratetol=1.0 / qcomp=0.60 / qpmin=0 / qpmax=69 / qpstep=4 / cplxblur=20.0 / qblur=0.5 / vbv_maxrate=17500 / vbv_bufsize=17500 / nal_hrd=none / filler=0 / ip_ratio=1.40 / aq=1:1.00
  192. Default                                  : Yes
  193. Forced                                   : No
  194. Color range                              : Limited
  195. Color primaries                          : BT.709
  196. Transfer characteristics                 : BT.709
  197. Matrix coefficients                      : BT.709
  198. Duration_Source                          : General_Duration
  199.  
  200. Audio
  201. ID                                       : 2
  202. Format                                   : AC-3
  203. Format/Info                              : Audio Coding 3
  204. Commercial name                          : Dolby Digital
  205. Codec ID                                 : A_AC3
  206. Duration                                 : 2 h 40 min
  207. Bit rate mode                            : Constant
  208. Bit rate                                 : 224 kb/s
  209. Channel(s)                               : 6 channels
  210. Channel layout                           : L R C LFE Ls Rs
  211. Sampling rate                            : 48.0 kHz
  212. Frame rate                               : 31.250 FPS (1536 SPF)
  213. Compression mode                         : Lossy
  214. Delay relative to video                  : -5 ms
  215. Stream size                              : 257 MiB (18%)
  216. Title                                    : LustMovies.pro
  217. Service kind                             : Complete Main
  218. Default                                  : Yes
  219. Forced                                   : No
  220. Duration_Source                          : General_Duration
  221.  
  222. Text
  223. ID                                       : 3
  224. Format                                   : ASS
  225. Codec ID                                 : S_TEXT/ASS
  226. Codec ID/Info                            : Advanced Sub Station Alpha
  227. Compression mode                         : Lossless
  228. Title                                    : LustMovies.pro
  229. Language                                 : English
  230. Default                                  : No
  231. Forced                                   : No
  232.  
  233. General
  234. Unique ID                                : 123491686038909597578932219921348143096 (0x5CE7A233C6576AAF1563EC890867A7F8)
  235. Complete name                            : Haasil 2003 480p DVD-Rip x264 DD 5.1 ~LustMovies.pro~ (537.1 M).mkv
  236. Format                                   : Matroska
  237. Format version                           : Version 4
  238. File size                                : 537 MiB
  239. Duration                                 : 2 h 40 min
  240. Overall bit rate                         : 469 kb/s
  241. Movie name                               : LustMovies.pro | Haasil 2003
  242. Encoded date                             : UTC 2020-09-20 06:17:44
  243. Writing application                      : HandBrake 1.2.1 2019021900
  244. Writing library                          : Lavf58.20.100
  245. ErrorDetectionType                       : Per level 1
  246.  
  247. Video
  248. ID                                       : 1
  249. Format                                   : AVC
  250. Format/Info                              : Advanced Video Codec
  251. Format profile                           : [email protected]
  252. Format settings                          : CABAC / 4 Ref Frames
  253. Format settings, CABAC                   : Yes
  254. Format settings, Reference frames        : 4 frames
  255. Codec ID                                 : V_MPEG4/ISO/AVC
  256. Duration                                 : 2 h 40 min
  257. Nominal bit rate                         : 400 kb/s
  258. Width                                    : 720 pixels
  259. Height                                   : 480 pixels
  260. Display aspect ratio                     : 2.25:1
  261. Frame rate mode                          : Constant
  262. Frame rate                               : 23.976 (24000/1001) FPS
  263. Color space                              : YUV
  264. Chroma subsampling                       : 4:2:0
  265. Bit depth                                : 8 bits
  266. Scan type                                : Progressive
  267. Bits/(Pixel*Frame)                       : 0.048
  268. Title                                    : LustMovies.pro
  269. Writing library                          : x264 core 152 r2854 e9a5903
  270. Encoding settings                        : cabac=1 / ref=1 / deblock=1:-1:-1 / analyse=0x1:0x111 / me=hex / subme=2 / psy=1 / psy_rd=1.00:0.15 / mixed_ref=0 / me_range=16 / chroma_me=1 / trellis=0 / 8x8dct=0 / cqm=0 / deadzone=21,11 / fast_pskip=1 / chroma_qp_offset=0 / threads=15 / lookahead_threads=3 / sliced_threads=0 / nr=0 / decimate=1 / interlaced=0 / bluray_compat=0 / constrained_intra=0 / bframes=3 / b_pyramid=2 / b_adapt=1 / b_bias=0 / direct=1 / weightb=1 / open_gop=0 / weightp=1 / keyint=240 / keyint_min=24 / scenecut=40 / intra_refresh=0 / rc_lookahead=10 / rc=2pass / mbtree=1 / bitrate=400 / ratetol=1.0 / qcomp=0.60 / qpmin=0 / qpmax=69 / qpstep=4 / cplxblur=20.0 / qblur=0.5 / vbv_maxrate=14000 / vbv_bufsize=14000 / nal_hrd=none / filler=0 / ip_ratio=1.40 / aq=1:1.00
  271. Default                                  : Yes
  272. Forced                                   : No
  273. Color range                              : Limited
  274. Color primaries                          : BT.709
  275. Transfer characteristics                 : BT.709
  276. Matrix coefficients                      : BT.709
  277. Duration_Source                          : General_Duration
  278.  
  279. Audio
  280. ID                                       : 2
  281. Format                                   : AAC LC
  282. Format/Info                              : Advanced Audio Codec Low Complexity
  283. Codec ID                                 : A_AAC-2
  284. Duration                                 : 2 h 40 min
  285. Channel(s)                               : 2 channels
  286. Channel layout                           : L R
  287. Sampling rate                            : 48.0 kHz
  288. Frame rate                               : 46.875 FPS (1024 SPF)
  289. Compression mode                         : Lossy
  290. Delay relative to video                  : -21 ms
  291. Title                                    : LustMovies.pro
  292. Default                                  : Yes
  293. Forced                                   : No
  294. Duration_Source                          : General_Duration
  295.  
  296. Text
  297. ID                                       : 3
  298. Format                                   : ASS
  299. Codec ID                                 : S_TEXT/ASS
  300. Codec ID/Info                            : Advanced Sub Station Alpha
  301. Compression mode                         : Lossless
  302. Title                                    : LustMovies.pro
  303. Language                                 : English
  304. Default                                  : No
  305. Forced                                   : No