>
The text below is selected, press Ctrl+C to copy to your clipboard. (⌘+C on Mac) No line numbers will be copied.
MediaInfo

10th February 2019 06:02:49 AM | Views: 17
  1. Format                      : Matroska
  2. Format version              : Version 4 / Version 2
  3. File size                   : 702 MiB
  4. Duration                    : 1 h 24 min
  5. Overall bit rate            : 1 159 kb/s
  6. Movie name                  : Songwriter.2018.720p.WEB-DL.MkvCage.ws
  7. Encoded date                : UTC 2019-02-10 05:53:02
  8. Writing application         : mkvmerge v30.0.0 ('Interstellar') 64-bit
  9. Writing library             : libebml v1.3.6 + libmatroska v1.4.9
  10.  
  11. Video
  12. ID                          : 1
  13. Format                      : AVC
  14. Format/Info                 : Advanced Video Codec
  15. Format profile              : [email protected]
  16. Format settings             : CABAC / 5 Ref Frames
  17. Format settings, CABAC      : Yes
  18. Format settings, ReFrames   : 5 frames
  19. Codec ID                    : V_MPEG4/ISO/AVC
  20. Duration                    : 1 h 24 min
  21. Bit rate                    : 1 090 kb/s
  22. Width                       : 1 280 pixels
  23. Height                      : 714 pixels
  24. Display aspect ratio        : 16:9
  25. Frame rate mode             : Constant
  26. Frame rate                  : 24.000 FPS
  27. Color space                 : YUV
  28. Chroma subsampling          : 4:2:0
  29. Bit depth                   : 8 bits
  30. Scan type                   : Progressive
  31. Bits/(Pixel*Frame)          : 0.050
  32. Stream size                 : 660 MiB (94%)
  33. Writing library             : x264 core 157 r2935 545de2f
  34. Encoding settings           : cabac=1 / ref=5 / deblock=1:-1:-1 / analyse=0x3:0x133 / me=umh / subme=9 / psy=1 / psy_rd=1.00:0.10 / mixed_ref=1 / me_range=24 / chroma_me=1 / trellis=2 / 8x8dct=1 / cqm=0 / deadzone=21,11 / fast_pskip=1 / chroma_qp_offset=-3 / threads=22 / lookahead_threads=1 / sliced_threads=0 / nr=0 / decimate=1 / interlaced=0 / bluray_compat=0 / constrained_intra=0 / bframes=3 / b_pyramid=2 / b_adapt=2 / b_bias=0 / direct=3 / weightb=1 / open_gop=0 / weightp=2 / keyint=250 / keyint_min=23 / scenecut=40 / intra_refresh=0 / rc_lookahead=60 / rc=2pass / mbtree=1 / bitrate=1090 / ratetol=1.0 / qcomp=0.60 / qpmin=0 / qpmax=69 / qpstep=4 / cplxblur=20.0 / qblur=0.5 / ip_ratio=1.40 / aq=1:1.00
  35. Default                     : Yes
  36. Forced                      : No
  37.  
  38. Audio
  39. ID                          : 2
  40. Format                      : AAC
  41. Format/Info                 : Advanced Audio Codec
  42. Format profile              : HE-AAC / LC
  43. Format settings             : Explicit
  44. Codec ID                    : A_AAC-2
  45. Duration                    : 1 h 24 min
  46. Bit rate                    : 64.0 kb/s
  47. Channel(s)                  : 2 channels
  48. Channel positions           : Front: L R
  49. Sampling rate               : 48.0 kHz / 24.0 kHz
  50. Frame rate                  : 23.438 FPS (1024 SPF)
  51. Compression mode            : Lossy
  52. Delay relative to video     : 1 ms
  53. Stream size                 : 38.8 MiB (6%)
  54. Language                    : English
  55. Default                     : Yes
  56. Forced                      : No
  57.  
  58. Text #1
  59. ID                          : 3
  60. Format                      : UTF-8
  61. Codec ID                    : S_TEXT/UTF8
  62. Codec ID/Info               : UTF-8 Plain Text
  63. Duration                    : 1 h 23 min
  64. Bit rate                    : 78 b/s
  65. Count of elements           : 842
  66. Stream size                 : 48.4 KiB (0%)
  67. Language                    : Arabic
  68. Default                     : No
  69. Forced                      : No
  70.  
  71. Text #2
  72. ID                          : 4
  73. Format                      : UTF-8
  74. Codec ID                    : S_TEXT/UTF8
  75. Codec ID/Info               : UTF-8 Plain Text
  76. Duration                    : 1 h 24 min
  77. Bit rate                    : 49 b/s
  78. Count of elements           : 881
  79. Stream size                 : 30.7 KiB (0%)
  80. Language                    : Chinese
  81. Default                     : No
  82. Forced                      : No
  83.  
  84. Text #3
  85. ID                          : 5
  86. Format                      : UTF-8
  87. Codec ID                    : S_TEXT/UTF8
  88. Codec ID/Info               : UTF-8 Plain Text
  89. Duration                    : 1 h 23 min
  90. Bit rate                    : 41 b/s
  91. Count of elements           : 840
  92. Stream size                 : 25.6 KiB (0%)
  93. Language                    : Croatian
  94. Default                     : No
  95. Forced                      : No
  96.  
  97. Text #4
  98. ID                          : 6
  99. Format                      : UTF-8
  100. Codec ID                    : S_TEXT/UTF8
  101. Codec ID/Info               : UTF-8 Plain Text
  102. Duration                    : 1 h 23 min
  103. Bit rate                    : 42 b/s
  104. Count of elements           : 840
  105. Stream size                 : 25.8 KiB (0%)
  106. Language                    : Czech
  107. Default                     : No
  108. Forced                      : No
  109.  
  110. Text #5
  111. ID                          : 7
  112. Format                      : UTF-8
  113. Codec ID                    : S_TEXT/UTF8
  114. Codec ID/Info               : UTF-8 Plain Text
  115. Duration                    : 1 h 23 min
  116. Bit rate                    : 53 b/s
  117. Count of elements           : 839
  118. Stream size                 : 32.5 KiB (0%)
  119. Language                    : Danish
  120. Default                     : No
  121. Forced                      : No
  122.  
  123. Text #6
  124. ID                          : 8
  125. Format                      : UTF-8
  126. Codec ID                    : S_TEXT/UTF8
  127. Codec ID/Info               : UTF-8 Plain Text
  128. Duration                    : 1 h 23 min
  129. Bit rate                    : 51 b/s
  130. Count of elements           : 832
  131. Stream size                 : 31.6 KiB (0%)
  132. Language                    : Dutch
  133. Default                     : No
  134. Forced                      : No
  135.  
  136. Text #7
  137. ID                          : 9
  138. Format                      : UTF-8
  139. Codec ID                    : S_TEXT/UTF8
  140. Codec ID/Info               : UTF-8 Plain Text
  141. Duration                    : 1 h 24 min
  142. Bit rate                    : 59 b/s
  143. Count of elements           : 941
  144. Stream size                 : 36.5 KiB (0%)
  145. Language                    : English
  146. Default                     : Yes
  147. Forced                      : No
  148.  
  149. Text #8
  150. ID                          : 10
  151. Format                      : UTF-8
  152. Codec ID                    : S_TEXT/UTF8
  153. Codec ID/Info               : UTF-8 Plain Text
  154. Duration                    : 1 h 23 min
  155. Bit rate                    : 54 b/s
  156. Count of elements           : 841
  157. Stream size                 : 33.2 KiB (0%)
  158. Language                    : Finnish
  159. Default                     : No
  160. Forced                      : No
  161.  
  162. Text #9
  163. ID                          : 11
  164. Format                      : UTF-8
  165. Codec ID                    : S_TEXT/UTF8
  166. Codec ID/Info               : UTF-8 Plain Text
  167. Duration                    : 1 h 23 min
  168. Bit rate                    : 57 b/s
  169. Count of elements           : 840
  170. Stream size                 : 35.5 KiB (0%)
  171. Language                    : French
  172. Default                     : No
  173. Forced                      : No
  174.  
  175. Text #10
  176. ID                          : 12
  177. Format                      : UTF-8
  178. Codec ID                    : S_TEXT/UTF8
  179. Codec ID/Info               : UTF-8 Plain Text
  180. Duration                    : 1 h 24 min
  181. Bit rate                    : 60 b/s
  182. Count of elements           : 929
  183. Stream size                 : 37.1 KiB (0%)
  184. Language                    : German
  185. Default                     : No
  186. Forced                      : No
  187.  
  188. Text #11
  189. ID                          : 13
  190. Format                      : UTF-8
  191. Codec ID                    : S_TEXT/UTF8
  192. Codec ID/Info               : UTF-8 Plain Text
  193. Duration                    : 1 h 23 min
  194. Bit rate                    : 94 b/s
  195. Count of elements           : 835
  196. Stream size                 : 57.9 KiB (0%)
  197. Language                    : Greek
  198. Default                     : No
  199. Forced                      : No
  200.  
  201. Text #12
  202. ID                          : 14
  203. Format                      : UTF-8
  204. Codec ID                    : S_TEXT/UTF8
  205. Codec ID/Info               : UTF-8 Plain Text
  206. Duration                    : 1 h 23 min
  207. Bit rate                    : 64 b/s
  208. Count of elements           : 845
  209. Stream size                 : 39.6 KiB (0%)
  210. Language                    : Hebrew
  211. Default                     : No
  212. Forced                      : No
  213.  
  214. Text #13
  215. ID                          : 15
  216. Format                      : UTF-8
  217. Codec ID                    : S_TEXT/UTF8
  218. Codec ID/Info               : UTF-8 Plain Text
  219. Duration                    : 1 h 23 min
  220. Bit rate                    : 111 b/s
  221. Count of elements           : 842
  222. Stream size                 : 68.3 KiB (0%)
  223. Language                    : Hindi
  224. Default                     : No
  225. Forced                      : No
  226.  
  227. Text #14
  228. ID                          : 16
  229. Format                      : UTF-8
  230. Codec ID                    : S_TEXT/UTF8
  231. Codec ID/Info               : UTF-8 Plain Text
  232. Duration                    : 1 h 23 min
  233. Bit rate                    : 44 b/s
  234. Count of elements           : 833
  235. Stream size                 : 27.1 KiB (0%)
  236. Language                    : Hungarian
  237. Default                     : No
  238. Forced                      : No
  239.  
  240. Text #15
  241. ID                          : 17
  242. Format                      : UTF-8
  243. Codec ID                    : S_TEXT/UTF8
  244. Codec ID/Info               : UTF-8 Plain Text
  245. Duration                    : 1 h 23 min
  246. Bit rate                    : 43 b/s
  247. Count of elements           : 805
  248. Stream size                 : 26.8 KiB (0%)
  249. Language                    : Indonesian
  250. Default                     : No
  251. Forced                      : No
  252.  
  253. Text #16
  254. ID                          : 18
  255. Format                      : UTF-8
  256. Codec ID                    : S_TEXT/UTF8
  257. Codec ID/Info               : UTF-8 Plain Text
  258. Duration                    : 1 h 24 min
  259. Bit rate                    : 53 b/s
  260. Count of elements           : 896
  261. Stream size                 : 33.4 KiB (0%)
  262. Language                    : Italian
  263. Default                     : No
  264. Forced                      : No
  265.  
  266. Text #17
  267. ID                          : 19
  268. Format                      : UTF-8
  269. Codec ID                    : S_TEXT/UTF8
  270. Codec ID/Info               : UTF-8 Plain Text
  271. Duration                    : 1 h 23 min
  272. Bit rate                    : 56 b/s
  273. Count of elements           : 878
  274. Stream size                 : 34.9 KiB (0%)
  275. Language                    : Korean
  276. Default                     : No
  277. Forced                      : No
  278.  
  279. Text #18
  280. ID                          : 20
  281. Format                      : UTF-8
  282. Codec ID                    : S_TEXT/UTF8
  283. Codec ID/Info               : UTF-8 Plain Text
  284. Duration                    : 1 h 23 min
  285. Bit rate                    : 53 b/s
  286. Count of elements           : 872
  287. Stream size                 : 32.6 KiB (0%)
  288. Language                    : Malay
  289. Default                     : No
  290. Forced                      : No
  291.  
  292. Text #19
  293. ID                          : 21
  294. Format                      : UTF-8
  295. Codec ID                    : S_TEXT/UTF8
  296. Codec ID/Info               : UTF-8 Plain Text
  297. Duration                    : 1 h 23 min
  298. Bit rate                    : 50 b/s
  299. Count of elements           : 833
  300. Stream size                 : 31.0 KiB (0%)
  301. Language                    : Norwegian
  302. Default                     : No
  303. Forced                      : No
  304.  
  305. Text #20
  306. ID                          : 22
  307. Format                      : UTF-8
  308. Codec ID                    : S_TEXT/UTF8
  309. Codec ID/Info               : UTF-8 Plain Text
  310. Duration                    : 1 h 23 min
  311. Bit rate                    : 44 b/s
  312. Count of elements           : 840
  313. Stream size                 : 27.2 KiB (0%)
  314. Language                    : Polish
  315. Default                     : No
  316. Forced                      : No
  317.  
  318. Text #21
  319. ID                          : 23
  320. Format                      : UTF-8
  321. Codec ID                    : S_TEXT/UTF8
  322. Codec ID/Info               : UTF-8 Plain Text
  323. Duration                    : 1 h 23 min
  324. Bit rate                    : 47 b/s
  325. Count of elements           : 827
  326. Stream size                 : 29.4 KiB (0%)
  327. Language                    : Portuguese
  328. Default                     : No
  329. Forced                      : No
  330.  
  331. Text #22
  332. ID                          : 24
  333. Format                      : UTF-8
  334. Codec ID                    : S_TEXT/UTF8
  335. Codec ID/Info               : UTF-8 Plain Text
  336. Duration                    : 1 h 23 min
  337. Bit rate                    : 51 b/s
  338. Count of elements           : 834
  339. Stream size                 : 31.6 KiB (0%)
  340. Language                    : Portuguese
  341. Default                     : No
  342. Forced                      : No
  343.  
  344. Text #23
  345. ID                          : 25
  346. Format                      : UTF-8
  347. Codec ID                    : S_TEXT/UTF8
  348. Codec ID/Info               : UTF-8 Plain Text
  349. Duration                    : 1 h 23 min
  350. Bit rate                    : 49 b/s
  351. Count of elements           : 769
  352. Stream size                 : 30.4 KiB (0%)
  353. Language                    : Romanian
  354. Default                     : No
  355. Forced                      : No
  356.  
  357. Text #24
  358. ID                          : 26
  359. Format                      : UTF-8
  360. Codec ID                    : S_TEXT/UTF8
  361. Codec ID/Info               : UTF-8 Plain Text
  362. Duration                    : 1 h 24 min
  363. Bit rate                    : 89 b/s
  364. Count of elements           : 928
  365. Stream size                 : 55.4 KiB (0%)
  366. Language                    : Russian
  367. Default                     : No
  368. Forced                      : No
  369.  
  370. Text #25
  371. ID                          : 27
  372. Format                      : UTF-8
  373. Codec ID                    : S_TEXT/UTF8
  374. Codec ID/Info               : UTF-8 Plain Text
  375. Duration                    : 1 h 23 min
  376. Bit rate                    : 44 b/s
  377. Count of elements           : 840
  378. Stream size                 : 27.4 KiB (0%)
  379. Language                    : Slovak
  380. Default                     : No
  381. Forced                      : No
  382.  
  383. Text #26
  384. ID                          : 28
  385. Format                      : UTF-8
  386. Codec ID                    : S_TEXT/UTF8
  387. Codec ID/Info               : UTF-8 Plain Text
  388. Duration                    : 1 h 24 min
  389. Bit rate                    : 55 b/s
  390. Count of elements           : 899
  391. Stream size                 : 34.2 KiB (0%)
  392. Language                    : Spanish
  393. Default                     : No
  394. Forced                      : No
  395.  
  396. Text #27
  397. ID                          : 29
  398. Format                      : UTF-8
  399. Codec ID                    : S_TEXT/UTF8
  400. Codec ID/Info               : UTF-8 Plain Text
  401. Duration                    : 1 h 23 min
  402. Bit rate                    : 55 b/s
  403. Count of elements           : 837
  404. Stream size                 : 34.2 KiB (0%)
  405. Language                    : Swedish
  406. Default                     : No
  407. Forced                      : No
  408.  
  409. Text #28
  410. ID                          : 30
  411. Format                      : UTF-8
  412. Codec ID                    : S_TEXT/UTF8
  413. Codec ID/Info               : UTF-8 Plain Text
  414. Duration                    : 1 h 23 min
  415. Bit rate                    : 122 b/s
  416. Count of elements           : 870
  417. Stream size                 : 75.2 KiB (0%)
  418. Language                    : Thai
  419. Default                     : No
  420. Forced                      : No
  421.  
  422. Text #29
  423. ID                          : 31
  424. Format                      : UTF-8
  425. Codec ID                    : S_TEXT/UTF8
  426. Codec ID/Info               : UTF-8 Plain Text
  427. Duration                    : 1 h 24 min
  428. Bit rate                    : 57 b/s
  429. Count of elements           : 914
  430. Stream size                 : 35.4 KiB (0%)
  431. Language                    : Turkish
  432. Default                     : No
  433. Forced                      : No
  434.  
  435. Text #30
  436. ID                          : 32
  437. Format                      : UTF-8
  438. Codec ID                    : S_TEXT/UTF8
  439. Codec ID/Info               : UTF-8 Plain Text
  440. Duration                    : 1 h 23 min
  441. Bit rate                    : 84 b/s
  442. Count of elements           : 840
  443. Stream size                 : 51.6 KiB (0%)
  444. Language                    : Ukrainian
  445. Default                     : No
  446. Forced                      : No
  447.  
  448. Text #31
  449. ID                          : 33
  450. Format                      : UTF-8
  451. Codec ID                    : S_TEXT/UTF8
  452. Codec ID/Info               : UTF-8 Plain Text
  453. Duration                    : 1 h 23 min
  454. Bit rate                    : 68 b/s
  455. Count of elements           : 871
  456. Stream size                 : 42.3 KiB (0%)
  457. Language                    : Vietnamese
  458. Default                     : No
  459. Forced                      : No
  460.  
  461. Menu
  462. 00:00:00.000                : en:The Tour Bus
  463. 00:08:50.530                : en:Ed & Murray
  464. 00:11:57.717                : en:Writing in Malibu
  465. 00:29:06.746                : en:Ed's Travels
  466. 00:34:34.073                : en:Crossing the Atlantic
  467. 00:41:49.508                : en:Arriving in Suffolk
  468. 00:44:36.675                : en:It's Getting Irish
  469. 00:52:28.146                : en:Ed Goes to School
  470. 00:57:54.472                : en:Abbey Road
  471. 01:04:45.883                : en:Supermarket Flowers
  472. 01:08:53.130                : en:One More Song
  473. 01:19:11.748                : en:The Album Is Done