The text below is selected, press Ctrl+C to copy to your clipboard. (⌘+C on Mac) No line numbers will be copied.
MotherAndroid (2021) 1080p

8th January 2022 07:24:45 AM | Views: 18
  1. Format                                   : Matroska
  2. Format version                           : Version 4
  3. File size                                : 3.96 GiB
  4. Duration                                 : 1 h 51 min
  5. Overall bit rate                         : 5 081 kb/s
  6. Movie name                               : MotherAndroid (2021) 1080p WEB-DL x264 Dual Audio [Hindi DDP5.1 + English DDP5.1] ESub 3.95GB [www.MoviezAddiction.art]
  7. Encoded date                             : UTC 2022-01-07 13:17:52
  8. Writing application                      : mkvmerge v47.0.0 ('Black Flag') 64-bit
  9. Writing library                          : libebml v1.3.10 + libmatroska v1.5.2
  10.  
  11. Video
  12. ID                                       : 1
  13. Format                                   : AVC
  14. Format/Info                              : Advanced Video Codec
  15. Format profile                           : [email protected]
  16. Format settings                          : CABAC / 5 Ref Frames
  17. Format settings, CABAC                   : Yes
  18. Format settings, Reference frames        : 5 frames
  19. Codec ID                                 : V_MPEG4/ISO/AVC
  20. Duration                                 : 1 h 51 min
  21. Bit rate                                 : 3 800 kb/s
  22. Width                                    : 1 920 pixels
  23. Height                                   : 804 pixels
  24. Display aspect ratio                     : 2.40:1
  25. Frame rate mode                          : Variable
  26. Frame rate                               : 23.976 (24000/1001) FPS
  27. Color space                              : YUV
  28. Chroma subsampling                       : 4:2:0
  29. Bit depth                                : 8 bits
  30. Scan type                                : Progressive
  31. Bits/(Pixel*Frame)                       : 0.103
  32. Stream size                              : 2.96 GiB (75%)
  33. Title                                    : [www.MoviezAddiction.art]
  34. Default                                  : Yes
  35. Forced                                   : No
  36.  
  37. Audio #1
  38. ID                                       : 2
  39. Format                                   : E-AC-3
  40. Format/Info                              : Enhanced AC-3
  41. Commercial name                          : Dolby Digital Plus
  42. Codec ID                                 : A_EAC3
  43. Duration                                 : 1 h 51 min
  44. Bit rate mode                            : Constant
  45. Bit rate                                 : 640 kb/s
  46. Channel(s)                               : 6 channels
  47. Channel layout                           : L R C LFE Ls Rs
  48. Sampling rate                            : 48.0 kHz
  49. Frame rate                               : 31.250 FPS (1536 SPF)
  50. Compression mode                         : Lossy
  51. Stream size                              : 510 MiB (13%)
  52. Title                                    : [www.MoviezAddiction.art] - Hindi
  53. Language                                 : Hindi
  54. Service kind                             : Complete Main
  55. Default                                  : Yes
  56. Forced                                   : No
  57.  
  58. Audio #2
  59. ID                                       : 3
  60. Format                                   : E-AC-3
  61. Format/Info                              : Enhanced AC-3
  62. Commercial name                          : Dolby Digital Plus
  63. Codec ID                                 : A_EAC3
  64. Duration                                 : 1 h 51 min
  65. Bit rate mode                            : Constant
  66. Bit rate                                 : 640 kb/s
  67. Channel(s)                               : 6 channels
  68. Channel layout                           : L R C LFE Ls Rs
  69. Sampling rate                            : 48.0 kHz
  70. Frame rate                               : 31.250 FPS (1536 SPF)
  71. Compression mode                         : Lossy
  72. Stream size                              : 510 MiB (13%)
  73. Title                                    : [www.MoviezAddiction.art] - English
  74. Language                                 : English
  75. Service kind                             : Complete Main
  76. Default                                  : No
  77. Forced                                   : No
  78.  
  79. Text
  80. ID                                       : 4
  81. Format                                   : UTF-8
  82. Codec ID                                 : S_TEXT/UTF8
  83. Codec ID/Info                            : UTF-8 Plain Text
  84. Duration                                 : 1 h 49 min
  85. Bit rate                                 : 63 b/s
  86. Count of elements                        : 1421
  87. Stream size                              : 50.9 KiB (0%)
  88. Title                                    : [www.MoviezAddiction.art] - English [SRT]
  89. Language                                 : English
  90. Default                                  : Yes
  91. Forced                                   : No