The text below is selected, press Ctrl+C to copy to your clipboard. (⌘+C on Mac) No line numbers will be copied.
Halloween Kills (2021) EXTENDED 2160p...

15th January 2022 11:22:44 AM | Views: 38
  1. Format                                   : Matroska
  2. Format version                           : Version 4
  3. File size                                : 56.9 GiB
  4. Duration                                 : 1 h 49 min
  5. Overall bit rate mode                    : Variable
  6. Overall bit rate                         : 74.7 Mb/s
  7. Movie name                               : Halloween Kills (2021) EXTENDED 2160p UHD BluRay REMUX x265 10bit HDR HEVC English DTS-HD MA 7.1 ESub 56.9GB [www.MoviezAddiction.art]
  8. Encoded date                             : UTC 2022-01-15 07:08:53
  9. Writing application                      : mkvmerge v47.0.0 ('Black Flag') 64-bit
  10. Writing library                          : libebml v1.3.10 + libmatroska v1.5.2
  11.  
  12. Video
  13. ID                                       : 1
  14. ID in the original source medium         : 4113 (0x1011)
  15. Format                                   : HEVC
  16. Format/Info                              : High Efficiency Video Coding
  17. Format profile                           : Main [email protected]@High
  18. HDR format                               : SMPTE ST 2086, HDR10 compatible
  19. Codec ID                                 : V_MPEGH/ISO/HEVC
  20. Duration                                 : 1 h 49 min
  21. Bit rate                                 : 70.9 Mb/s
  22. Width                                    : 3 840 pixels
  23. Height                                   : 2 160 pixels
  24. Display aspect ratio                     : 16:9
  25. Frame rate mode                          : Constant
  26. Frame rate                               : 23.976 (24000/1001) FPS
  27. Color space                              : YUV
  28. Chroma subsampling                       : 4:2:0 (Type 2)
  29. Bit depth                                : 10 bits
  30. Bits/(Pixel*Frame)                       : 0.357
  31. Stream size                              : 54.1 GiB (95%)
  32. Title                                    : [www.MoviezAddiction.art]
  33. Default                                  : Yes
  34. Forced                                   : No
  35. Color range                              : Limited
  36. Color primaries                          : BT.2020
  37. Transfer characteristics                 : PQ
  38. Matrix coefficients                      : BT.2020 non-constant
  39. Mastering display color primaries        : Display P3
  40. Mastering display luminance              : min: 0.0010 cd/m2, max: 1000 cd/m2
  41. Maximum Content Light Level              : 784 cd/m2
  42. Maximum Frame-Average Light Level        : 27 cd/m2
  43. Original source medium                   : Blu-ray
  44.  
  45. Audio
  46. ID                                       : 2
  47. Format                                   : DTS XLL
  48. Format/Info                              : Digital Theater Systems
  49. Commercial name                          : DTS-HD Master Audio
  50. Codec ID                                 : A_DTS
  51. Duration                                 : 1 h 49 min
  52. Bit rate mode                            : Variable
  53. Bit rate                                 : 3 728 kb/s
  54. Channel(s)                               : 8 channels
  55. Channel layout                           : C L R LFE Lb Rb Lss Rss
  56. Sampling rate                            : 48.0 kHz
  57. Frame rate                               : 93.750 FPS (512 SPF)
  58. Bit depth                                : 24 bits
  59. Compression mode                         : Lossless
  60. Stream size                              : 2.84 GiB (5%)
  61. Title                                    : [www.MoviezAddiction.art] - English
  62. Language                                 : English
  63. Default                                  : Yes
  64. Forced                                   : No
  65.  
  66. Text
  67. ID                                       : 3
  68. ID in the original source medium         : 4768 (0x12A0)
  69. Format                                   : PGS
  70. Codec ID                                 : S_HDMV/PGS
  71. Codec ID/Info                            : Picture based subtitle format used on BDs/HD-DVDs
  72. Duration                                 : 1 h 45 min
  73. Bit rate                                 : 40.0 kb/s
  74. Count of elements                        : 2980
  75. Stream size                              : 30.1 MiB (0%)
  76. Title                                    : [www.MoviezAddiction.art] - English [PGS]
  77. Language                                 : English
  78. Default                                  : Yes
  79. Forced                                   : No
  80. Original source medium                   : Blu-ray
  81.  
  82. Menu
  83. 00:00:00.000                             : en:Chapter 01
  84. 00:08:17.955                             : en:Chapter 02
  85. 00:15:10.743                             : en:Chapter 03
  86. 00:19:55.152                             : en:Chapter 04
  87. 00:26:17.409                             : en:Chapter 05
  88. 00:32:32.116                             : en:Chapter 06
  89. 00:38:01.445                             : en:Chapter 07
  90. 00:42:30.130                             : en:Chapter 08
  91. 00:46:52.935                             : en:Chapter 09
  92. 00:49:09.112                             : en:Chapter 10
  93. 00:55:07.762                             : en:Chapter 11
  94. 01:01:33.106                             : en:Chapter 12
  95. 01:06:04.585                             : en:Chapter 13
  96. 01:11:29.493                             : en:Chapter 14
  97. 01:16:19.408                             : en:Chapter 15
  98. 01:22:15.722                             : en:Chapter 16
  99. 01:26:26.014                             : en:Chapter 17
  100. 01:30:06.859                             : en:Chapter 18
  101. 01:35:24.301                             : en:Chapter 19
  102. 01:44:07.574                             : en:Chapter 20