The text below is selected, press Ctrl+C to copy to your clipboard. (⌘+C on Mac) No line numbers will be copied.
Smile (2022) REMASTERED DS4K 1080p...

18th November 2022 12:06:00 AM | Views: 39
  1. Format                                   : Matroska
  2. Format version                           : Version 4
  3. File size                                : 4.37 GiB
  4. Duration                                 : 1 h 57 min
  5. Overall bit rate                         : 5 349 kb/s
  6. Movie name                               : Smile (2022) REMASTERED DS4K 1080p PMTP WEB-DL x264 Dual Audio [Hindi DDP5.1 + English DDP5.1 Atmos] ESub 4.37GB [MoviezAddiction.life]
  7. Encoded date                             : UTC 2022-11-17 01:13:19
  8. Writing application                      : mkvmerge v72.0.0 ('Minuano (Six-eight)') 64-bit
  9. Writing library                          : libebml v1.4.4 + libmatroska v1.7.1
  10.  
  11. Video
  12. ID                                       : 1
  13. Format                                   : AVC
  14. Format/Info                              : Advanced Video Codec
  15. Format profile                           : [email protected]
  16. Format settings                          : CABAC / 4 Ref Frames
  17. Format settings, CABAC                   : Yes
  18. Format settings, Reference frames        : 4 frames
  19. Codec ID                                 : V_MPEG4/ISO/AVC
  20. Duration                                 : 1 h 55 min
  21. Bit rate                                 : 4 000 kb/s
  22. Width                                    : 1 920 pixels
  23. Height                                   : 960 pixels
  24. Display aspect ratio                     : 2.000
  25. Frame rate mode                          : Variable
  26. Frame rate                               : 23.976 FPS
  27. Color space                              : YUV
  28. Chroma subsampling                       : 4:2:0
  29. Bit depth                                : 8 bits
  30. Scan type                                : Progressive
  31. Bits/(Pixel*Frame)                       : 0.091
  32. Stream size                              : 3.23 GiB (74%)
  33. Default                                  : Yes
  34. Forced                                   : No
  35. Color range                              : Limited
  36. Color primaries                          : BT.709
  37. Transfer characteristics                 : BT.709
  38. Matrix coefficients                      : BT.709
  39.  
  40. Audio #1
  41. ID                                       : 2
  42. Format                                   : E-AC-3
  43. Format/Info                              : Enhanced AC-3
  44. Commercial name                          : Dolby Digital Plus
  45. Codec ID                                 : A_EAC3
  46. Duration                                 : 1 h 57 min
  47. Bit rate mode                            : Constant
  48. Bit rate                                 : 640 kb/s
  49. Channel(s)                               : 6 channels
  50. Channel layout                           : L R C LFE Ls Rs
  51. Sampling rate                            : 48.0 kHz
  52. Frame rate                               : 31.250 FPS (1536 SPF)
  53. Compression mode                         : Lossy
  54. Delay relative to video                  : -6 ms
  55. Stream size                              : 536 MiB (12%)
  56. Title                                    : Hindi
  57. Language                                 : Hindi
  58. Service kind                             : Complete Main
  59. Default                                  : Yes
  60. Forced                                   : No
  61.  
  62. Audio #2
  63. ID                                       : 3
  64. Format                                   : E-AC-3 JOC
  65. Format/Info                              : Enhanced AC-3 with Joint Object Coding
  66. Commercial name                          : Dolby Digital Plus with Dolby Atmos
  67. Codec ID                                 : A_EAC3
  68. Duration                                 : 1 h 55 min
  69. Bit rate mode                            : Constant
  70. Bit rate                                 : 768 kb/s
  71. Channel(s)                               : 6 channels
  72. Channel layout                           : L R C LFE Ls Rs
  73. Sampling rate                            : 48.0 kHz
  74. Frame rate                               : 31.250 FPS (1536 SPF)
  75. Compression mode                         : Lossy
  76. Stream size                              : 635 MiB (14%)
  77. Title                                    : English
  78. Language                                 : English
  79. Service kind                             : Complete Main
  80. Default                                  : No
  81. Forced                                   : No
  82. Complexity index                         : 16
  83. Number of dynamic objects                : 15
  84. Bed channel count                        : 1 channel
  85. Bed channel configuration                : LFE
  86.  
  87. Text
  88. ID                                       : 4
  89. Format                                   : UTF-8
  90. Codec ID                                 : S_TEXT/UTF8
  91. Codec ID/Info                            : UTF-8 Plain Text
  92. Duration                                 : 1 h 49 min
  93. Bit rate                                 : 52 b/s
  94. Frame rate                               : 0.206 FPS
  95. Count of elements                        : 1356
  96. Stream size                              : 41.9 KiB (0%)
  97. Title                                    : English [SRT]
  98. Language                                 : English
  99. Default                                  : Yes
  100. Forced                                   : No