The text below is selected, press Ctrl+C to copy to your clipboard. (⌘+C on Mac) No line numbers will be copied.
MediaInfo

16th May 2019 04:38:54 AM | Views: 19
  1. Format                      : Matroska
  2. Format version              : Version 4 / Version 2
  3. File size                   : 802 MiB
  4. Duration                    : 2 h 5 min
  5. Overall bit rate            : 895 kb/s
  6. Encoded date                : UTC 2019-05-15 07:11:14
  7. Writing application         : mkvmerge v28.2.0 ('The Awakening') 64-bit
  8. Writing library             : libebml v1.3.6 + libmatroska v1.4.9
  9.  
  10. Video
  11. ID                          : 1
  12. Format                      : HEVC
  13. Format/Info                 : High Efficiency Video Coding
  14. Format profile              : [email protected]@Main
  15. Codec ID                    : V_MPEGH/ISO/HEVC
  16. Duration                    : 2 h 5 min
  17. Bit rate                    : 829 kb/s
  18. Width                       : 1 280 pixels
  19. Height                      : 544 pixels
  20. Display aspect ratio        : 2.35:1
  21. Frame rate mode             : Constant
  22. Frame rate                  : 23.976 (24000/1001) FPS
  23. Color space                 : YUV
  24. Chroma subsampling          : 4:2:0
  25. Bit depth                   : 8 bits
  26. Bits/(Pixel*Frame)          : 0.050
  27. Stream size                 : 743 MiB (93%)
  28. Writing library             : x265 2.9+2-7e978ed93d60:[Windows][GCC 8.2.0][64 bit] 8bit+10bit+12bit
  29. Encoding settings           : cpuid=1111039 / frame-threads=5 / numa-pools=24,24 / wpp / no-pmode / no-pme / no-psnr / no-ssim / log-level=2 / input-csp=1 / input-res=1280x544 / interlace=0 / total-frames=180224 / level-idc=0 / high-tier=1 / uhd-bd=0 / ref=3 / no-allow-non-conformance / no-repeat-headers / annexb / no-aud / no-hrd / info / hash=0 / no-temporal-layers / open-gop / min-keyint=23 / keyint=250 / gop-lookahead=0 / bframes=4 / b-adapt=2 / b-pyramid / bframe-bias=0 / rc-lookahead=20 / lookahead-slices=0 / scenecut=40 / radl=0 / no-intra-refresh / ctu=64 / min-cu-size=8 / no-rect / no-amp / max-tu-size=32 / tu-inter-depth=1 / tu-intra-depth=1 / limit-tu=0 / rdoq-level=2 / dynamic-rd=0.00 / no-ssim-rd / signhide / no-tskip / nr-intra=0 / nr-inter=0 / no-constrained-intra / no-strong-intra-smoothing / max-merge=2 / limit-refs=3 / no-limit-modes / me=1 / subme=2 / merange=57 / temporal-mvp / weightp / no-weightb / no-analyze-src-pics / deblock=-1:-1 / no-sao / no-sao-non-deblock / rd=3 / no-early-skip / rskip / no-fast-intra / no-tskip-fast / no-cu-lossless / no-b-intra / no-splitrd-skip / rdpenalty=0 / psy-rd=2.00 / psy-rdoq=0.00 / no-rd-refine / no-lossless / cbqpoffs=0 / crqpoffs=0 / rc=abr / bitrate=829 / qcomp=0.60 / qpstep=4 / stats-write=0 / stats-read=2 / cplxblur=20.0 / qblur=0.5 / ipratio=1.40 / pbratio=1.30 / aq-mode=1 / aq-strength=1.00 / cutree / zone-count=0 / no-strict-cbr / qg-size=32 / no-rc-grain / qpmax=69 / qpmin=0 / no-const-vbv / sar=0 / overscan=0 / videoformat=5 / range=0 / colorprim=2 / transfer=2 / colormatrix=2 / chromaloc=0 / display-window=0 / max-cll=0,0 / min-luma=0 / max-luma=255 / log2-max-poc-lsb=8 / vui-timing-info / vui-hrd-info / slices=1 / no-opt-qp-pps / no-opt-ref-list-length-pps / no-multi-pass-opt-rps / scenecut-bias=0.05 / no-opt-cu-delta-qp / no-aq-motion / no-hdr / no-hdr-opt / no-dhdr10-opt / no-idr-recovery-sei / analysis-reuse-level=5 / scale-factor=0 / refine-intra=0 / refine-inter=0 / refine-mv=0 / no-limit-sao / ctu-info=0 / no-lowpass-dct / refine-mv-type=0 / copy-pic=1 / max-ausize-factor=1.0 / no-dynamic-refine / no-single-sei
  30. Default                     : Yes
  31. Forced                      : No
  32.  
  33. Audio
  34. ID                          : 2
  35. Format                      : AAC
  36. Format/Info                 : Advanced Audio Codec
  37. Format profile              : HE-AAC / LC
  38. Format settings             : Explicit
  39. Codec ID                    : A_AAC-2
  40. Duration                    : 2 h 5 min
  41. Bit rate                    : 64.0 kb/s
  42. Channel(s)                  : 2 channels
  43. Channel positions           : Front: L R
  44. Sampling rate               : 48.0 kHz / 24.0 kHz
  45. Frame rate                  : 23.438 FPS (1024 SPF)
  46. Compression mode            : Lossy
  47. Delay relative to video     : 43 ms
  48. Stream size                 : 57.3 MiB (7%)
  49. Default                     : Yes
  50. Forced                      : No