The text below is selected, press Ctrl+C to copy to your clipboard. (⌘+C on Mac) No line numbers will be copied.
Top Gun Maverick (2022) IMAX...

13th January 2023 03:33:36 AM | Views: 10
  1. Format                                   : Matroska
  2. Format version                           : Version 4
  3. File size                                : 31.6 GiB
  4. Duration                                 : 2 h 12 min
  5. Overall bit rate mode                    : Variable
  6. Overall bit rate                         : 34.2 Mb/s
  7. Movie name                               : Top Gun Maverick (2022) IMAX 1080p BluRay REMUX x264 Dual Audio [Hindi DDP5.1 + English DTS-HD MA 7.1] ESub 31.6GB [MoviezAddiction]
  8. Encoded date                             : UTC 2023-01-12 15:23:16
  9. Writing application                      : mkvmerge v72.0.0 ('Minuano (Six-eight)') 64-bit
  10. Writing library                          : libebml v1.4.4 + libmatroska v1.7.1
  11.  
  12. Video
  13. ID                                       : 1
  14. ID in the original source medium         : 4113 (0x1011)
  15. Format                                   : AVC
  16. Format/Info                              : Advanced Video Codec
  17. Format profile                           : [email protected]
  18. Format settings                          : CABAC / 2 Ref Frames
  19. Format settings, CABAC                   : Yes
  20. Format settings, Reference frames        : 2 frames
  21. Codec ID                                 : V_MPEG4/ISO/AVC
  22. Duration                                 : 2 h 10 min
  23. Bit rate mode                            : Variable
  24. Bit rate                                 : 29.9 Mb/s
  25. Width                                    : 1 920 pixels
  26. Height                                   : 1 080 pixels
  27. Display aspect ratio                     : 16:9
  28. Frame rate mode                          : Constant
  29. Frame rate                               : 23.976 (24000/1001) FPS
  30. Color space                              : YUV
  31. Chroma subsampling                       : 4:2:0
  32. Bit depth                                : 8 bits
  33. Scan type                                : Progressive
  34. Bits/(Pixel*Frame)                       : 0.601
  35. Stream size                              : 27.2 GiB (86%)
  36. Default                                  : Yes
  37. Forced                                   : No
  38. Original source medium                   : Blu-ray
  39.  
  40. Audio #1
  41. ID                                       : 2
  42. Format                                   : E-AC-3
  43. Format/Info                              : Enhanced AC-3
  44. Commercial name                          : Dolby Digital Plus
  45. Codec ID                                 : A_EAC3
  46. Duration                                 : 2 h 12 min
  47. Bit rate mode                            : Constant
  48. Bit rate                                 : 640 kb/s
  49. Channel(s)                               : 6 channels
  50. Channel layout                           : L R C LFE Ls Rs
  51. Sampling rate                            : 48.0 kHz
  52. Frame rate                               : 31.250 FPS (1536 SPF)
  53. Compression mode                         : Lossy
  54. Stream size                              : 607 MiB (2%)
  55. Title                                    : Hindi
  56. Language                                 : Hindi
  57. Service kind                             : Complete Main
  58. Default                                  : Yes
  59. Forced                                   : No
  60.  
  61. Audio #2
  62. ID                                       : 3
  63. Format                                   : DTS XLL
  64. Format/Info                              : Digital Theater Systems
  65. Commercial name                          : DTS-HD Master Audio
  66. Codec ID                                 : A_DTS
  67. Duration                                 : 2 h 10 min
  68. Bit rate mode                            : Variable
  69. Bit rate                                 : 4 193 kb/s
  70. Channel(s)                               : 8 channels
  71. Channel layout                           : C L R LFE Lb Rb Lss Rss
  72. Sampling rate                            : 48.0 kHz
  73. Frame rate                               : 93.750 FPS (512 SPF)
  74. Bit depth                                : 24 bits
  75. Compression mode                         : Lossless
  76. Stream size                              : 3.81 GiB (12%)
  77. Title                                    : English
  78. Language                                 : English
  79. Default                                  : No
  80. Forced                                   : No
  81.  
  82. Text
  83. ID                                       : 4
  84. ID in the original source medium         : 4608 (0x1200)
  85. Format                                   : PGS
  86. Codec ID                                 : S_HDMV/PGS
  87. Codec ID/Info                            : Picture based subtitle format used on BDs/HD-DVDs
  88. Duration                                 : 1 h 57 min
  89. Bit rate                                 : 36.9 kb/s
  90. Frame rate                               : 0.413 FPS
  91. Count of elements                        : 2906
  92. Stream size                              : 31.0 MiB (0%)
  93. Title                                    : English [PGS]
  94. Language                                 : English
  95. Default                                  : Yes
  96. Forced                                   : No
  97. Original source medium                   : Blu-ray
  98.  
  99. Menu
  100. 00:00:00.000                             : en:Chapter 01
  101. 00:03:05.226                             : en:Chapter 02
  102. 00:13:40.110                             : en:Chapter 03
  103. 00:21:22.948                             : en:Chapter 04
  104. 00:32:39.415                             : en:Chapter 05
  105. 00:44:47.518                             : en:Chapter 06
  106. 00:53:54.940                             : en:Chapter 07
  107. 01:00:09.606                             : en:Chapter 08
  108. 01:07:39.305                             : en:Chapter 09
  109. 01:15:46.166                             : en:Chapter 10
  110. 01:23:37.721                             : en:Chapter 11
  111. 01:31:49.128                             : en:Chapter 12
  112. 01:41:32.628                             : en:Chapter 13
  113. 01:48:48.063                             : en:Chapter 14
  114. 01:57:22.410                             : en:Chapter 15
  115. 02:03:13.135                             : en:Chapter 16