The text below is selected, press Ctrl+C to copy to your clipboard. (⌘+C on Mac) No line numbers will be copied.
Star Wars The Bad Batch...

17th January 2023 09:22:48 AM | Views: 6
  1. Format                                   : Matroska
  2. Format version                           : Version 4
  3. File size                                : 2.51 GiB
  4. Duration                                 : 21 min 54 s
  5. Overall bit rate                         : 16.4 Mb/s
  6. Movie name                               : Star Wars The Bad Batch (2023) S02E01 [Spoils of War] 2160p DSNP UHD WEB-DL x265 10bit DV HEVC English DDP5.1 ESub 2.50GB [MoviezAddiction]
  7. Encoded date                             : UTC 2023-01-05 04:10:08
  8. Writing application                      : mkvmerge v72.0.0 ('Minuano (Six-eight)') 64-bit
  9. Writing library                          : libebml v1.4.4 + libmatroska v1.7.1
  10.  
  11. Video
  12. ID                                       : 1
  13. Format                                   : HEVC
  14. Format/Info                              : High Efficiency Video Coding
  15. Format profile                           : Main [email protected]@High
  16. Codec ID                                 : V_MPEGH/ISO/HEVC
  17. Duration                                 : 21 min 54 s
  18. Bit rate                                 : 16.1 Mb/s
  19. Width                                    : 3 840 pixels
  20. Height                                   : 2 160 pixels
  21. Display aspect ratio                     : 16:9
  22. Frame rate mode                          : Constant
  23. Frame rate                               : 24.000 FPS
  24. Color space                              : YUV
  25. Chroma subsampling                       : 4:2:0
  26. Bit depth                                : 10 bits
  27. Bits/(Pixel*Frame)                       : 0.081
  28. Stream size                              : 2.47 GiB (98%)
  29. Default                                  : Yes
  30. Forced                                   : No
  31. Color range                              : Full
  32.  
  33. Audio
  34. ID                                       : 2
  35. Format                                   : E-AC-3
  36. Format/Info                              : Enhanced AC-3
  37. Commercial name                          : Dolby Digital Plus
  38. Codec ID                                 : A_EAC3
  39. Duration                                 : 21 min 54 s
  40. Bit rate mode                            : Constant
  41. Bit rate                                 : 256 kb/s
  42. Channel(s)                               : 6 channels
  43. Channel layout                           : L R C LFE Ls Rs
  44. Sampling rate                            : 48.0 kHz
  45. Frame rate                               : 31.250 FPS (1536 SPF)
  46. Compression mode                         : Lossy
  47. Stream size                              : 40.1 MiB (2%)
  48. Title                                    : English
  49. Language                                 : English
  50. Service kind                             : Complete Main
  51. Default                                  : Yes
  52. Forced                                   : No
  53.  
  54. Text
  55. ID                                       : 3
  56. Format                                   : UTF-8
  57. Codec ID                                 : S_TEXT/UTF8
  58. Codec ID/Info                            : UTF-8 Plain Text
  59. Duration                                 : 20 min 4 s
  60. Bit rate                                 : 54 b/s
  61. Count of elements                        : 225
  62. Stream size                              : 8.05 KiB (0%)
  63. Title                                    : English [SRT]
  64. Language                                 : English
  65. Default                                  : Yes
  66. Forced                                   : No