The text below is selected, press Ctrl+C to copy to your clipboard. (⌘+C on Mac) No line numbers will be copied.
Lost Bullet (2020) REMASTERED DS4K...

13th November 2022 06:56:19 AM | Views: 19
  1. Format                                   : Matroska
  2. Format version                           : Version 4
  3. File size                                : 991 MiB
  4. Duration                                 : 1 h 33 min
  5. Overall bit rate                         : 1 476 kb/s
  6. Movie name                               : Lost Bullet (2020) REMASTERED DS4K 720p NF WEB-DL x264 Dual Audio [Hindi DD5.1 + English DD5.1] ESub 991MB [MoviezAddiction.life]
  7. Encoded date                             : UTC 2022-11-13 02:41:58
  8. Writing application                      : mkvmerge v71.1.0 ('Fortitude') 64-bit
  9. Writing library                          : libebml v1.4.4 + libmatroska v1.7.1
  10.  
  11. Video
  12. ID                                       : 1
  13. Format                                   : AVC
  14. Format/Info                              : Advanced Video Codec
  15. Format profile                           : [email protected]
  16. Format settings                          : CABAC / 4 Ref Frames
  17. Format settings, CABAC                   : Yes
  18. Format settings, Reference frames        : 4 frames
  19. Codec ID                                 : V_MPEG4/ISO/AVC
  20. Duration                                 : 1 h 33 min
  21. Bit rate                                 : 1 099 kb/s
  22. Width                                    : 1 280 pixels
  23. Height                                   : 534 pixels
  24. Display aspect ratio                     : 2.40:1
  25. Original display aspect ratio            : 2.40:1
  26. Frame rate mode                          : Constant
  27. Frame rate                               : 25.000 FPS
  28. Color space                              : YUV
  29. Chroma subsampling                       : 4:2:0
  30. Bit depth                                : 8 bits
  31. Scan type                                : Progressive
  32. Bits/(Pixel*Frame)                       : 0.064
  33. Stream size                              : 734 MiB (74%)
  34. Default                                  : Yes
  35. Forced                                   : No
  36. Color range                              : Limited
  37. Color primaries                          : BT.709
  38. Transfer characteristics                 : BT.709
  39. Matrix coefficients                      : BT.709
  40.  
  41. Audio #1
  42. ID                                       : 2
  43. Format                                   : AAC LC SBR
  44. Format/Info                              : Advanced Audio Codec Low Complexity with Spectral Band Replication
  45. Commercial name                          : HE-AAC
  46. Format settings                          : Explicit
  47. Codec ID                                 : A_AAC-2
  48. Duration                                 : 1 h 33 min
  49. Bit rate                                 : 192 kb/s
  50. Channel(s)                               : 6 channels
  51. Channel layout                           : C L R Ls Rs LFE
  52. Sampling rate                            : 48.0 kHz
  53. Frame rate                               : 23.438 FPS (2048 SPF)
  54. Compression mode                         : Lossy
  55. Stream size                              : 128 MiB (13%)
  56. Title                                    : Hindi
  57. Language                                 : Hindi
  58. Default                                  : Yes
  59. Forced                                   : No
  60.  
  61. Audio #2
  62. ID                                       : 3
  63. Format                                   : AAC LC SBR
  64. Format/Info                              : Advanced Audio Codec Low Complexity with Spectral Band Replication
  65. Commercial name                          : HE-AAC
  66. Format settings                          : Explicit
  67. Codec ID                                 : A_AAC-2
  68. Duration                                 : 1 h 33 min
  69. Bit rate                                 : 192 kb/s
  70. Channel(s)                               : 6 channels
  71. Channel layout                           : C L R Ls Rs LFE
  72. Sampling rate                            : 48.0 kHz
  73. Frame rate                               : 23.438 FPS (2048 SPF)
  74. Compression mode                         : Lossy
  75. Stream size                              : 127 MiB (13%)
  76. Title                                    : English
  77. Language                                 : English
  78. Default                                  : No
  79. Forced                                   : No
  80.  
  81. Text
  82. ID                                       : 4
  83. Format                                   : UTF-8
  84. Codec ID                                 : S_TEXT/UTF8
  85. Codec ID/Info                            : UTF-8 Plain Text
  86. Duration                                 : 7 min 16 s
  87. Bit rate                                 : 0 b/s
  88. Frame rate                               : 0.005 FPS
  89. Count of elements                        : 2
  90. Stream size                              : 31.0 Bytes (0%)
  91. Title                                    : English [SRT]
  92. Language                                 : English
  93. Default                                  : Yes
  94. Forced                                   : No